Hide Your IP Address when Downloading Torrents!
Your IP Address is 182.232.198.186. Location Thailand,
Your Internet Provider can see when you download torrents! Hide your IP Address with a VPN
ETTV warns: You should use VPN to hide your torrenting. Hide IP with VPN

Download "Yakuza Princess 2021 HDRip XviD B4ND1T69"

Title:
Yakuza Princess 2021 HDRip XviD B4ND1T69
Category:
Movies > XviD
Language:
English
Total Size:
1.04 GB
Info Hash:
a952032fd5d8a909aa5a4074db5587671e4ebd4d
Added By:
B4ND1T69
Date Added:
1 week ago
  • Seeds: 359
  • Leechers: 43
  • Uploaded By: B4ND1T69
Uploaders Description
Yakuza.Princess.2021.HDRip.XviD.B4ND1T69



Director: Vicente Amorim
Writers: Vicente Amorim(Co-writer), Danilo Beyruth(graphic novel "Samurai Shiro"), Kimi Lee
Stars: MASUMI, Jonathan Rhys Meyers, Tsuyoshi Ihara

Plot/Story:
The heiress to half of the Yakuza crime syndicate forges an uneasy alliance with an amnesiac stranger who believes an ancient sword binds their two fates. She must unleash war against the other half of the syndicate who wants her dead.

General
Complete name               : Yakuza.Princess.2021.HDRip.XviD.B4ND1T69.avi
Format                      : AVI
Format/Info                 : Audio Video Interleave
File size                   : 1.04 GiB
Duration                    : 1 h 51 min
Overall bit rate            : 1 345 kb/s
Subtitles                   : Yes...Hardcoded for non-English parts + file included(HI)

Video
ID                          : 0
Format                      : MPEG-4 Visual
Format profile              : Advanced [email protected]
Format settings, BVOP       : 2
Format settings, QPel       : No
Format settings, GMC        : No warppoints
Format settings, Matrix     : Default (H.263)
Codec ID                    : XVID
Codec ID/Hint               : XviD
Duration                    : 1 h 51 min
Bit rate                    : 1 204 kb/s
Width                       : 720 pixels
Height                      : 304 pixels
Display aspect ratio        : 2.35:1
Frame rate                  : 23.976 (24000/1001) FPS
Color space                 : YUV
Chroma subsampling          : 4:2:0
Bit depth                   : 8 bits
Scan type                   : Progressive
Compression mode            : Lossy
Bits/(Pixel*Frame)          : 0.229
Stream size                 : 958 MiB (90%)
Writing library             : XviD 64

Audio
ID                          : 1
Format                      : MPEG Audio
Format version              : Version 1
Format profile              : Layer 3
Codec ID                    : 55
Codec ID/Hint               : MP3
Duration                    : 1 h 51 min
Bit rate mode               : Constant
Bit rate                    : 128 kb/s
Channel(s)                  : 2 channels
Sampling rate               : 48.0 kHz
Compression mode            : Lossy
Stream size                 : 102 MiB (10%)
Alignment                   : Aligned on interleaves
Interleave, duration        : 24  ms (0.58 video frame)

Screenshots:










Please Seed For As Long As Possible
Or At Least 1:1 Ratio...Thanks
Enjoy Peeps


File List:

Downloaded from 1337x txt
....
61.00 B
Downloaded from ETTV txt
....
55.00 B
Downloaded from Glodls to txt
....
261.00 B
Downloaded from ProStyleX txt
....
54.00 B
Downloaded from The Pirate Bay txt
....
57.00 B
Yakuza Princess 2021 HDRip XviD B4ND1T69 avi
....
1.04 GB
Yakuza Princess 2021 HDRip XviD B4ND1T69 srt
....
40.99 kB