Hide Your IP Address when Downloading Torrents!
Your IP Address is 182.232.198.186. Location Thailand,
Your Internet Provider can see when you download torrents! Hide your IP Address with a VPN
ETTV warns: You should use VPN to hide your torrenting. Hide IP with VPN

Download "The Protege (2021) [Bengali Dub] WEB-DLRip Saicord"

Title:
The Protege (2021) [Bengali Dub] WEB-DLRip Saicord
Category:
Movies > SD X264/H264
Language:
Bengali
Total Size:
1.05 GB
Info Hash:
379598053007e91cecda85e79cc2539e67817c0c
Added By:
MelbetCinema7
Date Added:
1 week ago
  • Seeds: 5
  • Leechers: 1
  • Uploaded By: MelbetCinema7
Uploaders Description









Video

ID                          : 1

Format                      : AVC

Format/Info                 : Advanced Video Codec

Format profile              : [email protected]

Format settings             : CABAC / 1 Ref Frames

Format settings, CABAC      : Yes

Format settings, Reference  : 1 frame

Codec ID                    : avc1

Codec ID/Info               : Advanced Video Coding

Duration                    : 1 h 46 min

Bit rate mode               : Constant

Bit rate                    : 1 200 kb/s

Width                       : 720 pixels

Height                      : 300 pixels

Display aspect ratio        : 2.40:1

Frame rate mode             : Constant

Frame rate                  : 25.000 FPS

Color space                 : YUV

Chroma subsampling          : 4:2:0

Bit depth                   : 8 bits

Scan type                   : Progressive

Bits/(Pixel*Frame)          : 0.222

Stream size                 : 918 MiB (86%)

Codec configuration box     : avcC


Audio

ID                          : 2

Format                      : AAC LC

Format/Info                 : Advanced Audio Codec Low Complexity

Codec ID                    : mp4a-40-2

Duration                    : 1 h 46 min

Source duration             : 1 h 46 min

Bit rate mode               : Constant

Bit rate                    : 192 kb/s

Channel(s)                  : 2 channels

Channel layout              : L R

Sampling rate               : 48.0 kHz

Frame rate                  : 46.875 FPS (1024 SPF)

Compression mode            : Lossy

Stream size                 : 148 MiB (14%)

Source stream size          : 148 MiB (14%)

Default                     : Yes

Alternate group             : 1

mdhd_Duration               : 6419627


File List:

The Protege (2021) [Bengali Dub] 400p WEB-DLRip Saicord mp4
....
1.05 GB