Hide Your IP Address when Downloading Torrents!
Your IP Address is 182.232.198.186. Location Thailand,
Your Internet Provider can see when you download torrents! Hide your IP Address with a VPN
ETTV warns: You should use VPN to hide your torrenting. Hide IP with VPN

Download "Payback (2021) [Bengali Dub] 1080p WEB-DLRip Saicord"

Title:
Payback (2021) [Bengali Dub] 1080p WEB-DLRip Saicord
Category:
Movies > HD 1080p
Language:
Bengali
Total Size:
2.73 GB
Info Hash:
eeab21d614c254342adc3f14586554d505b086d2
Added By:
MelbetCinema7
Date Added:
1 week ago
  • Seeds: 12
  • Leechers: 0
  • Uploaded By: MelbetCinema7
Uploaders Description









Video

ID                          : 1

Format                      : AVC

Format/Info                 : Advanced Video Codec

Format profile              : [email protected]

Format settings             : CABAC / 1 Ref Frames

Format settings, CABAC      : Yes

Format settings, Reference  : 1 frame

Codec ID                    : avc1

Codec ID/Info               : Advanced Video Coding

Duration                    : 1 h 33 min

Bit rate mode               : Constant

Bit rate                    : 4 000 kb/s

Width                       : 1 920 pixels

Height                      : 1 080 pixels

Display aspect ratio        : 16:9

Frame rate mode             : Constant

Frame rate                  : 23.976 (24000/1001) FPS

Color space                 : YUV

Chroma subsampling          : 4:2:0

Bit depth                   : 8 bits

Scan type                   : Progressive

Bits/(Pixel*Frame)          : 0.080

Stream size                 : 2.60 GiB (95%)

Codec configuration box     : avcC


Audio

ID                          : 2

Format                      : AAC LC

Format/Info                 : Advanced Audio Codec Low Complexity

Codec ID                    : mp4a-40-2

Duration                    : 1 h 33 min

Source duration             : 1 h 33 min

Bit rate mode               : Constant

Bit rate                    : 192 kb/s

Channel(s)                  : 2 channels

Channel layout              : L R

Sampling rate               : 48.0 kHz

Frame rate                  : 46.875 FPS (1024 SPF)

Compression mode            : Lossy

Stream size                 : 127 MiB (5%)

Source stream size          : 127 MiB (5%)

Default                     : Yes

Alternate group             : 1

mdhd_Duration               : 5590699


File List:

Payback (2021) [Bengali Dub] 1080p WEB-DLRip Saicord mp4
....
2.73 GB