Hide Your IP Address when Downloading Torrents!
Your IP Address is 182.232.198.186. Location Thailand,
Your Internet Provider can see when you download torrents! Hide your IP Address with a VPN
ETTV warns: You should use VPN to hide your torrenting. Hide IP with VPN

Download "12 Mighty Orphans (2021) [Bengali Dub] 720p WEB-DLRip Saicord"

Title:
12 Mighty Orphans (2021) [Bengali Dub] 720p WEB-DLRip Saicord
Category:
Movies > HD 720p
Language:
Bengali
Total Size:
1.85 GB
Info Hash:
5a9a231908e01798f16eaae885362721988317f1
Added By:
MelbetCinema7
Date Added:
1 week ago
  • Seeds: 14
  • Leechers: 0
  • Uploaded By: MelbetCinema7
Uploaders Description









Video

ID                          : 1

Format                      : AVC

Format/Info                 : Advanced Video Codec

Format profile              : [email protected]

Format settings             : CABAC / 1 Ref Frames

Format settings, CABAC      : Yes

Format settings, Reference  : 1 frame

Codec ID                    : avc1

Codec ID/Info               : Advanced Video Coding

Duration                    : 2 h 0 min

Bit rate mode               : Constant

Bit rate                    : 2 000 kb/s

Width                       : 1 280 pixels

Height                      : 536 pixels

Display aspect ratio        : 2.40:1

Frame rate mode             : Constant

Frame rate                  : 23.976 (24000/1001) FPS

Color space                 : YUV

Chroma subsampling          : 4:2:0

Bit depth                   : 8 bits

Scan type                   : Progressive

Bits/(Pixel*Frame)          : 0.122

Stream size                 : 1.68 GiB (91%)

Codec configuration box     : avcC


Audio

ID                          : 2

Format                      : AAC LC

Format/Info                 : Advanced Audio Codec Low Complexity

Codec ID                    : mp4a-40-2

Duration                    : 2 h 0 min

Source duration             : 2 h 0 min

Bit rate mode               : Constant

Bit rate                    : 192 kb/s

Channel(s)                  : 2 channels

Channel layout              : L R

Sampling rate               : 48.0 kHz

Frame rate                  : 46.875 FPS (1024 SPF)

Compression mode            : Lossy

Stream size                 : 166 MiB (9%)

Source stream size          : 166 MiB (9%)

Default                     : Yes

Alternate group             : 1

mdhd_Duration               : 7236181


File List:

12 Mighty Orphans (2021) [Bengali Dub] 720p WEB-DLRip Saicord mp4
....
1.85 GB