Hide Your IP Address when Downloading Torrents!
Your IP Address is 182.232.198.186. Location Thailand,
Your Internet Provider can see when you download torrents! Hide your IP Address with a VPN
ETTV warns: You should use VPN to hide your torrenting. Hide IP with VPN

Download "12 Mighty Orphans (2021) [Bengali Dub] 1080p WEB-DLRip Saicord"

Title:
12 Mighty Orphans (2021) [Bengali Dub] 1080p WEB-DLRip Saicord
Category:
Movies > HD 1080p
Language:
Bengali
Total Size:
3.54 GB
Info Hash:
b8b6432ee19aefae5d4bf74c1f4612f3f32f9e6e
Added By:
MelbetCinema7
Date Added:
2 days ago
  • Seeds: 61
  • Leechers: 0
  • Uploaded By: MelbetCinema7
Uploaders Description









Video

ID                          : 1

Format                      : AVC

Format/Info                 : Advanced Video Codec

Format profile              : [email protected]

Format settings             : CABAC / 1 Ref Frames

Format settings, CABAC      : Yes

Format settings, Reference  : 1 frame

Codec ID                    : avc1

Codec ID/Info               : Advanced Video Coding

Duration                    : 2 h 0 min

Bit rate mode               : Constant

Bit rate                    : 4 000 kb/s

Width                       : 1 920 pixels

Height                      : 804 pixels

Display aspect ratio        : 2.40:1

Frame rate mode             : Constant

Frame rate                  : 23.976 (24000/1001) FPS

Color space                 : YUV

Chroma subsampling          : 4:2:0

Bit depth                   : 8 bits

Scan type                   : Progressive

Bits/(Pixel*Frame)          : 0.108

Stream size                 : 3.37 GiB (95%)

Codec configuration box     : avcC


Audio

ID                          : 2

Format                      : AAC LC

Format/Info                 : Advanced Audio Codec Low Complexity

Codec ID                    : mp4a-40-2

Duration                    : 2 h 0 min

Source duration             : 2 h 0 min

Bit rate mode               : Constant

Bit rate                    : 192 kb/s

Channel(s)                  : 2 channels

Channel layout              : L R

Sampling rate               : 48.0 kHz

Frame rate                  : 46.875 FPS (1024 SPF)

Compression mode            : Lossy

Stream size                 : 166 MiB (5%)

Source stream size          : 166 MiB (5%)

Default                     : Yes

Alternate group             : 1

mdhd_Duration               : 7236181


File List:

12 Mighty Orphans (2021) [Bengali Dub] 1080p WEB-DLRip Saicord mp4
....
3.54 GB