Hide Your IP Address when Downloading Torrents!
Your IP Address is 182.232.198.186. Location Thailand,
Your Internet Provider can see when you download torrents! Hide your IP Address with a VPN
ETTV warns: You should use VPN to hide your torrenting. Hide IP with VPN

Download "Dark Desire S01 2021 x264 720p WebHD Hindi THE GOPI SAHI"

Title:
Dark Desire S01 2021 x264 720p WebHD Hindi THE GOPI SAHI
Category:
Movies > Dubs/Dual Audio
Language:
Hindi
Total Size:
4.06 GB
Info Hash:
93f7093e062e4e2b5f563c32bd9f150ff56d3c44
Added By:
GOPISAHI
Date Added:
1 week ago
  • Seeds: 166
  • Leechers: 90
  • Uploaded By: GOPISAHI
Uploaders Description
Join Us On TeleGram

https://t.me/gopisahit



Dark Desire S01 2021 x264 720p WebHD Esub Hindi THE GOPI SAHI

Format                         : Matroska
Format version                 : Version 4
File size                      : 4.06 GiB
Duration                       : 10 h 2 min
Overall bit rate               : 966 kb/s
Movie name                     : Dark Desire S01 2021 GOPI SAHI
Encoded date                   : UTC 2021-09-15 06:03:09

Video
Format                         : AVC
Format/Info                    : Advanced Video Codec
Format profile                 : [email protected]
Format settings                : 2 Ref Frames
Format settings, CABAC         : No
Format settings, Reference fra : 2 frames
Codec ID                       : V_MPEG4/ISO/AVC
Duration                       : 10 h 2 min
Bit rate                       : 900 kb/s
Width                          : 1 280 pixels
Height                         : 720 pixels
Display aspect ratio           : 16:9
Frame rate mode                : Constant
Frame rate                     : 23.976 (23976/1000) FPS
Color space                    : YUV
Chroma subsampling             : 4:2:0
Bit depth                      : 8 bits
Scan type                      : Progressive
Bits/(Pixel*Frame)             : 0.041
Stream size                    : 3.66 GiB (90%)
Title                          : GOPI SAHI
Writing library                : x264 core 157 r2970 5493be8

Audio
ID                             : 2
Format                         : AAC LC
Format/Info                    : Advanced Audio Codec Low Complexity
Codec ID                       : A_AAC-2
Duration                       : 10 h 2 min
Bit rate                       : 96.0 kb/s
Channel(s)                     : 2 channels
Channel layout                 : L R
Sampling rate                  : 48.0 kHz
Frame rate                     : 46.875 FPS (1024 SPF)
Compression mode               : Lossy
Delay relative to video        : -21 ms
Stream size                    : 409 MiB (10%)
Title                          : GOPI SAHI
Language                       : Hindi







File List:

Dark Desire S01 2021 x264 720p WebHD Esub Hindi THE GOPI SAHI mkv
....
4.06 GB