Hide Your IP Address when Downloading Torrents!
Your IP Address is 182.232.198.186. Location Thailand,
Your Internet Provider can see when you download torrents! Hide your IP Address with a VPN
ETTV warns: You should use VPN to hide your torrenting. Hide IP with VPN

Download "What If 2021 S01E06 What If Killmonger Rescued Tony Stark 720p marvelanddc"

Title:
What If 2021 S01E06 What If Killmonger Rescued Tony Stark 720p marvelanddc
Category:
TV > HD/X264/H264
Language:
Total Size:
278 MB
Info Hash:
ba2eeb5746570514a912954edda5aa6d655dc2a8
Added By:
marvelanddc
Date Added:
1 week ago
  • Seeds: 300
  • Leechers: 996
  • Uploaded By: marvelanddc
Uploaders Description
Tv -- what if 
Imdb--https://www.imdb.com/title/tt10168312/





General
Format                                   : MPEG-4
Format profile                           : Base Media
File size                                : 278 MiB
Duration                                 : 31 min 2 s
Overall bit rate                         : 1 252 kb/s

Video
ID                                       : 1
Format                                   : AVC
Format/Info                              : Advanced Video Codec
Format profile                           : [email protected]
Format settings                          : CABAC / 3 Ref Frames
Format settings, CABAC                   : Yes
Format settings, Reference frames        : 3 frames
Codec ID                                 : avc1
Codec ID/Info                            : Advanced Video Coding
Duration                                 : 31 min 2 s
Bit rate                                 : 1 121 kb/s
Width                                    : 1 920 pixels
Height                                   : 1 080 pixels
Display aspect ratio                     : 16:9
Frame rate mode                          : Constant
Frame rate                               : 24.000 FPS
Color space                              : YUV
Chroma subsampling                       : 4:2:0
Bit depth                                : 8 bits
Scan type                                : Progressive
Bits/(Pixel*Frame)                       : 0.023
Stream size                              : 249 MiB (90%)
Writing library                          : x264 core 152 r2854 e9a5903
Encoding settings                        : cabac=1 / ref=3 / deblock=1:-1:-1 / analyse=0x3:0x113 / me=hex / subme=7 / psy=1 / psy_rd=1.00:0.15 / mixed_ref=1 / me_range=16 / chroma_me=1 / trellis=1 / 8x8dct=1 / cqm=0 / deadzone=21,11 / fast_pskip=1 / chroma_qp_offset=-3 / threads=18 / lookahead_threads=3 / sliced_threads=0 / nr=0 / decimate=1 / interlaced=0 / bluray_compat=0 / constrained_intra=0 / bframes=0 / weightp=2 / keyint=250 / keyint_min=24 / scenecut=40 / intra_refresh=0 / rc_lookahead=40 / rc=crf / mbtree=1 / crf=27.0 / qcomp=0.60 / qpmin=0 / qpmax=69 / qpstep=4 / vbv_maxrate=1475 / vbv_bufsize=2433 / crf_max=0.0 / nal_hrd=none / filler=0 / ip_ratio=1.40 / aq=1:1.00
Tagged date                              : UTC 2021-09-15 07:59:57
Codec configuration box                  : avcC

Audio
ID                                       : 2
Format                                   : AAC LC
Format/Info                              : Advanced Audio Codec Low Complexity
Codec ID                                 : mp4a-40-2
Duration                                 : 31 min 2 s
Source duration                          : 31 min 2 s
Bit rate mode                            : Constant
Bit rate                                 : 128 kb/s
Channel(s)                               : 2 channels
Channel layout                           : L R
Sampling rate                            : 48.0 kHz
Frame rate                               : 46.875 FPS (1024 SPF)
Compression mode                         : Lossy
Stream size                              : 28.4 MiB (10%)
Source stream size                       : 28.4 MiB (10%)
Default                                  : Yes
Alternate group                          : 1
Tagged date                              : UTC 2021-09-15 07:59:57

File List:

What If 2021 S01E06 What If Killmonger Rescued Tony Stark 720p [marvelanddc] mp4
....
278 MB