Hide Your IP Address when Downloading Torrents!
Your IP Address is 182.232.198.186. Location Thailand,
Your Internet Provider can see when you download torrents! Hide your IP Address with a VPN
ETTV warns: You should use VPN to hide your torrenting. Hide IP with VPN

Download "Prisoners of the Ghostland 2021 HDRip XviD B4ND1T69"

Title:
Prisoners of the Ghostland 2021 HDRip XviD B4ND1T69
Category:
Movies > XviD
Language:
English
Total Size:
1.25 GB
Info Hash:
d726d2ac099de765f97dca1686603d43d7ecc8d7
Added By:
B4ND1T69
Date Added:
2 days ago
  • Seeds: 159
  • Leechers: 34
  • Uploaded By: B4ND1T69
Uploaders Description
Prisoners.of.the.Ghostland.2021.HDRip.XviD.B4ND1T69



Director: Sion Sono
Writers: Aaron Hendry, Reza Sixo Safai(screenplay)
Stars: Nicolas Cage, Sofia Boutella, Nick Cassavetes

Plot/Story:
A notorious criminal must break an evil curse in order to rescue an abducted girl who has mysteriously disappeared.

General
Complete name               : Prisoners.of.the.Ghostland.2021.HDRip.XviD.B4ND1T69.avi
Format                      : AVI
Format/Info                 : Audio Video Interleave
File size                   : 1.25 GiB
Duration                    : 1 h 42 min
Overall bit rate            : 1 741 kb/s
Subtitles                   : Yes...Hardcoded for non-English parts + file included(HI)

Video
ID                          : 0
Format                      : MPEG-4 Visual
Format profile              : Advanced [email protected]
Format settings, BVOP       : 2
Format settings, QPel       : No
Format settings, GMC        : No warppoints
Format settings, Matrix     : Default (H.263)
Codec ID                    : XVID
Codec ID/Hint               : XviD
Duration                    : 1 h 42 min
Bit rate                    : 1 600 kb/s
Width                       : 720 pixels
Height                      : 304 pixels
Display aspect ratio        : 2.35:1
Frame rate                  : 23.976 (24000/1001) FPS
Color space                 : YUV
Chroma subsampling          : 4:2:0
Bit depth                   : 8 bits
Scan type                   : Progressive
Compression mode            : Lossy
Bits/(Pixel*Frame)          : 0.305
Stream size                 : 1.15 GiB (92%)
Writing library             : XviD 64

Audio
ID                          : 1
Format                      : MPEG Audio
Format version              : Version 1
Format profile              : Layer 3
Codec ID                    : 55
Codec ID/Hint               : MP3
Duration                    : 1 h 42 min
Bit rate mode               : Constant
Bit rate                    : 128 kb/s
Channel(s)                  : 2 channels
Sampling rate               : 48.0 kHz
Compression mode            : Lossy
Stream size                 : 94.1 MiB (7%)
Alignment                   : Aligned on interleaves
Interleave, duration        : 24  ms (0.58 video frame)

Screenshots:










Please Seed For As Long As Possible
Or At Least 1:1 Ratio...Thanks
Enjoy Peeps


File List:

Downloaded from 1337x txt
....
61.00 B
Downloaded from ETTV txt
....
55.00 B
Downloaded from Glodls to txt
....
261.00 B
Downloaded from ProStyleX txt
....
54.00 B
Downloaded from The Pirate Bay txt
....
57.00 B
Prisoners of the Ghostland 2021 HDRip XviD B4ND1T69 avi
....
1.25 GB
Prisoners of the Ghostland 2021 HDRip XviD B4ND1T69 srt
....
72.56 kB