Hide Your IP Address when Downloading Torrents!
Your IP Address is 182.232.198.186. Location Thailand,
Your Internet Provider can see when you download torrents! Hide your IP Address with a VPN
ETTV warns: You should use VPN to hide your torrenting. Hide IP with VPN

Download "Stargirl S02E10 Summer School Chapter Ten 1080p AMZN WEBrip x265 DDP5 1 D0ct0rLew[SEV]"

Title:
Stargirl S02E10 Summer School Chapter Ten 1080p AMZN WEBrip x265 DDP5 1 D0ct0rLew[SEV]
Category:
TV > HEVC/x265
Language:
English
Total Size:
848 MB
Info Hash:
dc7d6630284701246f2aec1a90b32e876b88e1ee
Added By:
D0ct0rLew
Date Added:
2 days ago
  • Seeds: 220
  • Leechers: 87
  • Uploaded By: D0ct0rLew
Uploaders Description





Media Information

Unique ID                                : 270364235657228126135791389335592870644 (0xCB6641FAE11116953A0CAF9CC787A2F4)
Complete name                            : Stargirl S02E10 Summer School Chapter Ten 1080p AMZN WEBrip x265 DDP5 1 D0ct0rLew[SEV].mkv
Format                                   : Matroska
Format version                           : Version 4
File size                                : 848 MiB
Duration                                 : 40 min 12 s
Overall bit rate                         : 2 947 kb/s
Movie name                               : Stargirl S02E10 Summer School Chapter Ten 1080p AMZN WEBrip x265 DDP5 1 D0ct0rLew[SEV]
Encoded date                             : UTC 2021-10-13 11:22:20
Writing application                      : mkvmerge v56.1.0 ('My Friend') 64-bit
Writing library                          : libebml v1.4.2 + libmatroska v1.6.4

Video
ID                                       : 1
Format                                   : HEVC
Format/Info                              : High Efficiency Video Coding
Format profile                           : Main [email protected]@Main
Codec ID                                 : V_MPEGH/ISO/HEVC
Duration                                 : 40 min 12 s
Bit rate                                 : 2 305 kb/s
Width                                    : 1 920 pixels
Height                                   : 872 pixels
Display aspect ratio                     : 2.2:1
Frame rate mode                          : Constant
Frame rate                               : 23.976 (24000/1001) FPS
Color space                              : YUV
Chroma subsampling                       : 4:2:0
Bit depth                                : 10 bits
Bits/(Pixel*Frame)                       : 0.057
Stream size                              : 663 MiB (78%)
Writing library                          : x265 3.5+10-82786fccc:[Windows][MSVC 1929][64 bit] 10bit
Encoding settings                        : cpuid=1111039 / frame-threads=3 / numa-pools=8 / wpp / no-pmode / no-pme / no-psnr / no-ssim / log-level=2 / input-csp=1 / input-res=1920x872 / interlace=0 / total-frames=1440 / level-idc=0 / high-tier=1 / uhd-bd=0 / ref=4 / no-allow-non-conformance / no-repeat-headers / annexb / no-aud / no-eob / no-eos / no-hrd / info / hash=0 / no-temporal-layers / open-gop / min-keyint=24 / keyint=240 / gop-lookahead=0 / bframes=16 / b-adapt=2 / b-pyramid / bframe-bias=0 / rc-lookahead=90 / lookahead-slices=4 / scenecut=40 / hist-scenecut=0 / radl=0 / no-splice / no-intra-refresh / ctu=64 / min-cu-size=8 / no-rect / no-amp / max-tu-size=32 / tu-inter-depth=4 / tu-intra-depth=4 / limit-tu=0 / rdoq-level=2 / dynamic-rd=0.00 / no-ssim-rd / signhide / no-tskip / nr-intra=0 / nr-inter=0 / no-constrained-intra / no-strong-intra-smoothing / max-merge=5 / limit-refs=0 / limit-modes / me=3 / subme=7 / merange=92 / temporal-mvp / no-frame-dup / no-hme / weightp / no-weightb / no-analyze-src-pics / deblock=0:0 / sao / no-sao-non-deblock / rd=4 / selective-sao=4 / no-early-skip / rskip / no-fast-intra / no-tskip-fast / no-cu-lossless / no-b-intra / no-splitrd-skip / rdpenalty=0 / psy-rd=1.50 / psy-rdoq=1.00 / no-rd-refine / no-lossless / cbqpoffs=0 / crqpoffs=0 / rc=crf / crf=18.3 / qcomp=0.64 / qpstep=4 / stats-write=0 / stats-read=0 / ipratio=1.40 / pbratio=1.30 / aq-mode=4 / aq-strength=1.40 / cutree / zone-count=0 / no-strict-cbr / qg-size=32 / no-rc-grain / qpmax=69 / qpmin=0 / no-const-vbv / sar=1 / overscan=0 / videoformat=5 / range=0 / colorprim=2 / transfer=2 / colormatrix=2 / chromaloc=0 / display-window=0 / cll=0,0 / min-luma=0 / max-luma=1023 / log2-max-poc-lsb=8 / vui-timing-info / vui-hrd-info / slices=1 / no-opt-qp-pps / no-opt-ref-list-length-pps / no-multi-pass-opt-rps / scenecut-bias=0.05 / hist-threshold=0.03 / no-opt-cu-delta-qp / no-aq-motion / no-hdr10 / no-hdr10-opt / no-dhdr10-opt / no-idr-recovery-sei / analysis-reuse-level=0 / analysis-save-reuse-level=0 / analysis-load-reuse-level=0 / scale-factor=0 / refine-intra=0 / refine-inter=0 / refine-mv=1 / refine-ctu-distortion=0 / no-limit-sao / ctu-info=0 / no-lowpass-dct / refine-analysis-type=0 / copy-pic=1 / max-ausize-factor=1.0 / no-dynamic-refine / no-single-sei / no-hevc-aq / no-svt / no-field / qp-adaptation-range=1.00 / scenecut-aware-qp=0conformance-window-offsets / right=0 / bottom=0 / decoder-max-rate=0 / no-vbv-live-multi-pass
Default                                  : Yes
Forced                                   : No

Audio
ID                                       : 2
Format                                   : E-AC-3
Format/Info                              : Enhanced AC-3
Commercial name                          : Dolby Digital Plus
Codec ID                                 : A_EAC3
Duration                                 : 40 min 12 s
Bit rate mode                            : Constant
Bit rate                                 : 640 kb/s
Channel(s)                               : 6 channels
Channel layout                           : L R C LFE Ls Rs
Sampling rate                            : 48.0 kHz
Frame rate                               : 31.250 FPS (1536 SPF)
Compression mode                         : Lossy
Stream size                              : 184 MiB (22%)
Language                                 : English
Service kind                             : Complete Main
Default                                  : Yes
Forced                                   : No

Text
ID                                       : 3
Format                                   : UTF-8
Codec ID                                 : S_TEXT/UTF8
Codec ID/Info                            : UTF-8 Plain Text
Duration                                 : 40 min 4 s
Bit rate                                 : 51 b/s
Count of elements                        : 627
Stream size                              : 15.0 KiB (0%)
Title                                    : English
Language                                 : English
Default                                  : No
Forced                                   : No

We have no issue with individuals posting or re-uploading our torrents on a platform we aren't on. However, if this is something you'd like to do, please do so in a 'as-is' format. We ask that you do not create a new torrent, include all descriptions you see above including the SEV logo, tags, notes and screenshots.
If you'd like to become a permanent poster on a website we don't post to, feel free to get in contact with a Sublime Encoded Video member.

We are recruiting/training new members for SEV & seedbox providers as well as people to help out with subtitles.
As you already know, we deliver quality, so you know the standard.
If you're interested, feel free to contact any of the team members.


File List:

Contact SEV txt
....
1.03 kB
Stargirl S02E10 Summer School Chapter Ten 1080p AMZN WEBrip x265 DDP5 1 D0ct0rLew[SEV] mkv
....
848 MB