Hide Your IP Address when Downloading Torrents!
Your IP Address is 182.232.198.186. Location Thailand,
Your Internet Provider can see when you download torrents! Hide your IP Address with a VPN
ETTV warns: You should use VPN to hide your torrenting. Hide IP with VPN

Download "Copshop 2021 720p AMZN WebRip x264 DD+5 1 ItsMyRip"

Title:
Copshop 2021 720p AMZN WebRip x264 DD+5 1 ItsMyRip
Category:
Movies > HD 720p
Language:
English
Total Size:
996 MB
Info Hash:
1bf4f4d02002323a35d58c9fdb88ac46371b4201
Added By:
Tamilgun
Date Added:
2 days ago
  • Seeds: 77
  • Leechers: 61
  • Uploaded By: Tamilgun
Uploaders Description







Video
ID                                       : 1
Format                                   : AVC
Format/Info                              : Advanced Video Codec
Format profile                           : [email protected]
Format settings                          : CABAC / 8 Ref Frames
Format settings, CABAC                   : Yes
Format settings, Reference frames        : 8 frames
Codec ID                                 : V_MPEG4/ISO/AVC
Duration                                 : 1 h 47 min
Bit rate                                 : 1 100 kb/s
Width                                    : 1 280 pixels
Height                                   : 536 pixels
Display aspect ratio                     : 2.40:1
Original display aspect ratio            : 2.40:1
Frame rate mode                          : Variable
Frame rate                               : 23.976 (24000/1001) FPS
Color space                              : YUV
Chroma subsampling                       : 4:2:0
Bit depth                                : 8 bits
Scan type                                : Progressive
Bits/(Pixel*Frame)                       : 0.067
Stream size                              : 846 MiB (85%)


Audio
ID                                       : 2
Format                                   : E-AC-3
Format/Info                              : Enhanced AC-3
Commercial name                          : Dolby Digital Plus
Codec ID                                 : A_EAC3
Duration                                 : 1 h 47 min
Bit rate mode                            : Constant
Bit rate                                 : 192 kb/s
Channel(s)                               : 6 channels
Channel layout                           : L R C LFE Ls Rs
Sampling rate                            : 48.0 kHz
Frame rate                               : 31.250 FPS (1536 SPF)
Compression mode                         : Lossy
Stream size                              : 148 MiB (15%)


Text #2
ID                                       : 4
Format                                   : UTF-8
Codec ID                                 : S_TEXT/UTF8
Codec ID/Info                            : UTF-8 Plain Text
Duration                                 : 1 h 41 min
Bit rate                                 : 58 b/s
Count of elements                        : 1651
Stream size                              : 43.4 KiB (0%)
Title                                    : 
Language                                 : English
Default                                  : No
Forced                                   : No




File List:

Copshop 2021 720p AMZN WebRip x264 DD+5 1 ItsMyRip mkv
....
996 MB