Hide Your IP Address when Downloading Torrents!
Your IP Address is 182.232.198.186. Location Thailand,
Your Internet Provider can see when you download torrents! Hide your IP Address with a VPN
ETTV warns: You should use VPN to hide your torrenting. Hide IP with VPN

Download "Jinne Jamme Saare Nikamme 2021 x264 720p WebHD Esub AAC Punjabi THE GOPI SAHI"

Title:
Jinne Jamme Saare Nikamme 2021 x264 720p WebHD Esub AAC Punjabi THE GOPI SAHI
Category:
Movies > Bollywood
Language:
Punjabi
Total Size:
944 MB
Info Hash:
0b5146a1aaf9998a07c642e3839357c834ce61f7
Added By:
GOPISAHI
Date Added:
2 days ago
  • Seeds: 707
  • Leechers: 720
  • Uploaded By: GOPISAHI
Uploaders Description
Join Us On TeleGram

https://t.me/gopisahit



Jinne Jamme Saare Nikamme 2021 x264 720p WebHD Esub AAC Punjabi THE GOPI SAHI

Format                         : Matroska
Format version                 : Version 4
File size                      : 944 MiB
Duration                       : 2 h 12 min
Overall bit rate               : 998 kb/s
Movie name                     : Jinne Jamme Saare Nikamme 2021 GOPI SAHI
Encoded date                   : UTC 2021-10-14 05:02:42

Video
ID                             : 1
Format                         : AVC
Format/Info                    : Advanced Video Codec
Format profile                 : [email protected]
Format settings                : CABAC / 12 Ref Frames
Format settings, CABAC         : Yes
Format settings, Reference fra : 12 frames
Codec ID                       : V_MPEG4/ISO/AVC
Duration                       : 2 h 12 min
Bit rate                       : 899 kb/s
Width                          : 1 280 pixels
Height                         : 534 pixels
Display aspect ratio           : 2.40:1
Frame rate mode                : Constant
Frame rate                     : 25.000 FPS
Color space                    : YUV
Chroma subsampling             : 4:2:0
Bit depth                      : 8 bits
Scan type                      : Progressive
Bits/(Pixel*Frame)             : 0.053
Stream size                    : 851 MiB (90%)
Title                          : GOPI SAHI
Writing library                : x264 core 163 r3059 b684ebe0

Audio
ID                             : 2
Format                         : AAC LC
Format/Info                    : Advanced Audio Codec Low Complexity
Codec ID                       : A_AAC-2
Duration                       : 2 h 12 min
Bit rate                       : 96.0 kb/s
Channel(s)                     : 2 channels
Channel layout                 : L R
Sampling rate                  : 48.0 kHz
Frame rate                     : 46.875 FPS (1024 SPF)
Compression mode               : Lossy
Delay relative to video        : -21 ms
Stream size                    : 91.4 MiB (10%)
Title                          : GOPI SAHI
Language                       : Panjabi
Default                        : Yes
Forced                         : No

Text
Language                       : English







File List:

Jinne Jamme Saare Nikamme 2021 x264 720p WebHD Esub AAC Punjabi THE GOPI SAHI mkv
....
944 MB