Hide Your IP Address when Downloading Torrents!
Your IP Address is 182.232.198.186. Location Thailand,
Your Internet Provider can see when you download torrents! Hide your IP Address with a VPN
ETTV warns: You should use VPN to hide your torrenting. Hide IP with VPN

Download "Pranavam (2021) [Bengali Dub] 720p WEB-DLRip Saicord"

Title:
Pranavam (2021) [Bengali Dub] 720p WEB-DLRip Saicord
Category:
Movies > Bollywood
Language:
Bengali
Total Size:
1.96 GB
Info Hash:
2ac76f10c42ace9d34e7c297ebaf950ce5947411
Added By:
MelbetCinema7
Date Added:
1 week ago
  • Seeds: 10
  • Leechers: 0
  • Uploaded By: MelbetCinema7
Uploaders Description









Video

ID                          : 1

Format                      : AVC

Format/Info                 : Advanced Video Codec

Format profile              : [email protected]

Format settings             : CABAC / 4 Ref Frames

Format settings, CABAC      : Yes

Format settings, Reference  : 4 frames

Format settings, GOP        : M=1, N=15

Codec ID                    : avc1

Codec ID/Info               : Advanced Video Coding

Duration                    : 2 h 2 min

Bit rate                    : 1 997 kb/s

Maximum bit rate            : 7 880 kb/s

Width                       : 1 280 pixels

Height                      : 534 pixels

Display aspect ratio        : 2.40:1

Frame rate mode             : Constant

Frame rate                  : 24.000 FPS

Standard                    : Component

Color space                 : YUV

Chroma subsampling          : 4:2:0

Bit depth                   : 8 bits

Scan type                   : Progressive

Bits/(Pixel*Frame)          : 0.122

Stream size                 : 1.70 GiB (87%)

Title                       : Pranavam (2021) [Bengali Dub] 720p WEB-DLRip Saicord_track1.h264

Encoded date                : UTC 2021-10-11 11:40:13

Tagged date                 : UTC 2021-10-11 11:40:23

Color range                 : Limited

Codec configuration box     : avcC


Audio

ID                          : 2

Format                      : AAC LC

Format/Info                 : Advanced Audio Codec Low Complexity

Codec ID                    : mp4a-40-2

Duration                    : 2 h 2 min

Bit rate mode               : Variable

Bit rate                    : 301 kb/s

Maximum bit rate            : 375 kb/s

Channel(s)                  : 2 channels

Channel layout              : L R

Sampling rate               : 48.0 kHz

Frame rate                  : 46.875 FPS (1024 SPF)

Compression mode            : Lossy

Stream size                 : 263 MiB (13%)

Title                       : Pranavam (2021) [Bengali Dub] 0p WEB-DLRip Saicord_new.aac

Encoded date                : UTC 2021-10-11 11:40:19

Tagged date                 : UTC 2021-10-11 11:40:23


File List:

Pranavam (2021) [Bengali Dub] 720p WEB-DLRip Saicord_track1 h264-muxed mp4
....
1.96 GB