Hide Your IP Address when Downloading Torrents!
Your IP Address is 182.232.198.186. Location Thailand,
Your Internet Provider can see when you download torrents! Hide your IP Address with a VPN
ETTV warns: You should use VPN to hide your torrenting. Hide IP with VPN

Download "Pranavam (2021) [Bengali Dub] 1080p WEB-DLRip Saicord"

Title:
Pranavam (2021) [Bengali Dub] 1080p WEB-DLRip Saicord
Category:
Movies > Bollywood
Language:
Bengali
Total Size:
3.66 GB
Info Hash:
0b2c35e6423103df3a92a23250232f959ffdfd5a
Added By:
MelbetCinema7
Date Added:
3 days ago
  • Seeds: 18
  • Leechers: 0
  • Uploaded By: MelbetCinema7
Uploaders Description









Video

ID                          : 1

Format                      : AVC

Format/Info                 : Advanced Video Codec

Format profile              : [email protected]

Format settings             : CABAC / 4 Ref Frames

Format settings, CABAC      : Yes

Format settings, Reference  : 4 frames

Format settings, GOP        : M=1, N=15

Codec ID                    : avc1

Codec ID/Info               : Advanced Video Coding

Duration                    : 2 h 2 min

Bit rate                    : 3 995 kb/s

Maximum bit rate            : 15.2 Mb/s

Width                       : 1 920 pixels

Height                      : 800 pixels

Display aspect ratio        : 2.40:1

Frame rate mode             : Constant

Frame rate                  : 24.000 FPS

Standard                    : Component

Color space                 : YUV

Chroma subsampling          : 4:2:0

Bit depth                   : 8 bits

Scan type                   : Progressive

Bits/(Pixel*Frame)          : 0.108

Stream size                 : 3.41 GiB (93%)

Title                       : Pranavam (2021) [Bengali Dub] 1080p WEB-DLRip Saicord_track1.h264

Encoded date                : UTC 2021-10-11 11:40:34

Tagged date                 : UTC 2021-10-11 11:40:55

Color range                 : Limited

Codec configuration box     : avcC


Audio

ID                          : 2

Format                      : AAC LC

Format/Info                 : Advanced Audio Codec Low Complexity

Codec ID                    : mp4a-40-2

Duration                    : 2 h 2 min

Bit rate mode               : Variable

Bit rate                    : 301 kb/s

Maximum bit rate            : 375 kb/s

Channel(s)                  : 2 channels

Channel layout              : L R

Sampling rate               : 48.0 kHz

Frame rate                  : 46.875 FPS (1024 SPF)

Compression mode            : Lossy

Stream size                 : 263 MiB (7%)

Title                       : Pranavam (2021) [Bengali Dub] 0p WEB-DLRip Saicord_new.aac

Encoded date                : UTC 2021-10-11 11:40:50

Tagged date                 : UTC 2021-10-11 11:40:55


File List:

Pranavam (2021) [Bengali Dub] 1080p WEB-DLRip Saicord_track1 h264-muxed mp4
....
3.66 GB