Hide Your IP Address when Downloading Torrents!
Your IP Address is 182.232.198.186. Location Thailand,
Your Internet Provider can see when you download torrents! Hide your IP Address with a VPN
ETTV warns: You should use VPN to hide your torrenting. Hide IP with VPN

Download "Jinne Jamme Saare Nikamme (2021) 480p Punjabi WEB-HDRip x264 AAC DD 2 0 ESub By Full4Movies"

Title:
Jinne Jamme Saare Nikamme (2021) 480p Punjabi WEB-HDRip x264 AAC DD 2 0 ESub By Full4Movies
Category:
Movies > SD X264/H264
Language:
Punjabi
Total Size:
418 MB
Info Hash:
341d7dd70cbedef38ed46be2bd080df5acdf6a16
Added By:
full4movies
Date Added:
3 days ago
  • Seeds: 10
  • Leechers: 13
  • Uploaded By: full4movies
Uploaders Description


Visit Us = https://www.full4movies.site/



General
Complete name                  : Jinne Jamme Saare Nikamme (2021) 480p Punjabi WEB-HDRip x264 AAC DD 2.0 ESub By Full4Movies.mkv
Format                         : Matroska
Format version                 : Version 4
File size                      : 418 MiB
Duration                       : 2 h 12 min
Overall bit rate               : 442 kb/s
Encoded date                   : UTC 2021-10-14 06:18:30 / UTC 
Writing application            : mkvmerge v8.3.0 ('Over the Horizon') 64bit
Writing library                : libebml v1.3.1 + libmatroska v1.4.2 / Lavf55.12.0
Attachments                    : 383845052472320.jpg

Video
ID                             : 1
Format                         : AVC
Format/Info                    : Advanced Video Codec
Format profile                 : [email protected]
Format settings                : CABAC / 4 Ref Frames
Format settings, CABAC         : Yes
Format settings, Reference fra : 4 frames
Codec ID                       : V_MPEG4/ISO/AVC
Duration                       : 2 h 12 min
Bit rate                       : 400 kb/s
Width                          : 720 pixels
Height                         : 300 pixels
Display aspect ratio           : 2.40:1
Frame rate mode                : Constant
Frame rate                     : 25.000 FPS
Color space                    : YUV
Chroma subsampling             : 4:2:0
Bit depth                      : 8 bits
Scan type                      : Progressive
Bits/(Pixel*Frame)             : 0.074
Stream size                    : 378 MiB (90%)
Writing library                : x264 core 142 r2479 dd79a61
Default                        : Yes
Forced                         : No
Color range                    : Limited
Color primaries                : BT.709
Transfer characteristics       : BT.709
Matrix coefficients            : BT.709

Audio
ID                             : 2
Format                         : AAC LC SBR
Format/Info                    : Advanced Audio Codec Low Complexity with Spectral Band Replication
Commercial name                : HE-AAC
Format settings                : NBC
Codec ID                       : A_AAC-5
Duration                       : 2 h 12 min
Bit rate                       : 40.0 kb/s
Channel(s)                     : 2 channels
Channel layout                 : L R
Sampling rate                  : 48.0 kHz
Frame rate                     : 23.438 FPS (2048 SPF)
Compression mode               : Lossy
Delay relative to video        : -105 ms
Stream size                    : 37.9 MiB (9%)
Title                          : Stereo
Language                       : Panjabi
Default                        : Yes
Forced                         : No

Text
ID                             : 3
Format                         : ASS
Codec ID                       : S_TEXT/ASS
Codec ID/Info                  : Advanced Sub Station Alpha
Duration                       : 2 h 8 min
Bit rate                       : 148 b/s
Count of elements              : 2459
Compression mode               : Lossless
Stream size                    : 140 KiB (0%)
Language                       : English
Default                        : No
Forced                         : No

Screen Shoots


File List:

Jinne Jamme Saare Nikamme (2021) 480p Punjabi WEB-HDRip x264 AAC DD 2 0 ESub By Full4Movies mkv
....
418 MB