Hide Your IP Address when Downloading Torrents!
Your IP Address is 182.232.198.186. Location Thailand,
Your Internet Provider can see when you download torrents! Hide your IP Address with a VPN
ETTV warns: You should use VPN to hide your torrenting. Hide IP with VPN

Download " Jinne Jamme Saare Nikamme (2021) 720p Punjabi WEB-HDRip x264 AA"

Title:
Jinne Jamme Saare Nikamme (2021) 720p Punjabi WEB-HDRip x264 AA
Category:
Movies > Bollywood
Language:
Punjabi
Total Size:
1.23 GB
Info Hash:
46cd84b30aa494f566ccb9af1b9a38ab4d9d0e4e
Added By:
full4movies
Date Added:
3 days ago
  • Seeds: 19
  • Leechers: 16
  • Uploaded By: full4movies
Uploaders Description


Visit Us = https://www.full4movies.site/



General
Complete name                  : Jinne Jamme Saare Nikamme (2021) 720p Punjabi WEB-HDRip x264 AAC DD 2.0 ESub By Full4Movies.mkv
Format                         : Matroska
Format version                 : Version 4
File size                      : 1.23 GiB
Duration                       : 2 h 12 min
Overall bit rate               : 1 330 kb/s
Encoded date                   : UTC 2021-10-14 06:18:54 / UTC 
Writing application            : mkvmerge v8.3.0 ('Over the Horizon') 64bit
Writing library                : libebml v1.3.1 + libmatroska v1.4.2 / Lavf55.12.0
Attachments                    : 383845052472320.jpg

Video
ID                             : 1
Format                         : AVC
Format/Info                    : Advanced Video Codec
Format profile                 : [email protected]
Format settings                : CABAC / 4 Ref Frames
Format settings, CABAC         : Yes
Format settings, Reference fra : 4 frames
Codec ID                       : V_MPEG4/ISO/AVC
Duration                       : 2 h 12 min
Bit rate                       : 1 200 kb/s
Width                          : 1 280 pixels
Height                         : 534 pixels
Display aspect ratio           : 2.40:1
Original display aspect ratio  : 2.40:1
Frame rate mode                : Constant
Frame rate                     : 25.000 FPS
Color space                    : YUV
Chroma subsampling             : 4:2:0
Bit depth                      : 8 bits
Scan type                      : Progressive
Bits/(Pixel*Frame)             : 0.070
Stream size                    : 1.11 GiB (90%)
Writing library                : x264 core 142 r2479 dd79a61
Encoding settings              : cabac=1 / ref=3 / deblock=1:0:0 / analyse=0x3:0x113 / me=hex / subme=7 / psy=1 / psy_rd=1.00:0.00 / mixed_ref=1 / me_range=16 / chroma_me=1 / trellis=1 / 8x8dct=1 / cqm=0 / deadzone=21,11 / fast_pskip=1 / chroma_qp_offset=-2 / threads=12 / lookahead_threads=2 / sliced_threads=0 / nr=0 / decimate=1 / interlaced=0 / bluray_compat=0 / constrained_intra=0 / bframes=3 / b_pyramid=2 / b_adapt=1 / b_bias=0 / direct=1 / weightb=1 / open_gop=0 / weightp=2 / keyint=250 / keyint_min=25 / scenecut=40 / intra_refresh=0 / rc_lookahead=40 / rc=2pass / mbtree=1 / bitrate=1200 / ratetol=1.0 / qcomp=0.60 / qpmin=0 / qpmax=69 / qpstep=4 / cplxblur=20.0 / qblur=0.5 / vbv_maxrate=62500 / vbv_bufsize=78125 / nal_hrd=none / filler=0 / ip_ratio=1.40 / aq=1:1.00
Default                        : Yes
Forced                         : No
Color range                    : Limited
Color primaries                : BT.709
Transfer characteristics       : BT.709
Matrix coefficients            : BT.709

Audio
ID                             : 2
Format                         : AAC LC SBR
Format/Info                    : Advanced Audio Codec Low Complexity with Spectral Band Replication
Commercial name                : HE-AAC
Format settings                : NBC
Codec ID                       : A_AAC-5
Duration                       : 2 h 12 min
Bit rate                       : 128 kb/s
Channel(s)                     : 2 channels
Channel layout                 : L R
Sampling rate                  : 48.0 kHz
Frame rate                     : 23.438 FPS (2048 SPF)
Compression mode               : Lossy
Delay relative to video        : -105 ms
Stream size                    : 121 MiB (10%)
Title                          : Stereo
Language                       : Panjabi
Default                        : Yes
Forced                         : No

Text
ID                             : 3
Format                         : ASS
Codec ID                       : S_TEXT/ASS
Codec ID/Info                  : Advanced Sub Station Alpha
Duration                       : 2 h 8 min
Bit rate                       : 148 b/s
Count of elements              : 2459
Compression mode               : Lossless
Stream size                    : 140 KiB (0%)
Language                       : English
Default                        : No
Forced                         : No


Screen Shoots


File List:

Jinne Jamme Saare Nikamme (2021) 720p Punjabi WEB-HDRip x264 AAC DD 2 0 ESub By Full4Movies mkv
....
1.23 GB