Hide Your IP Address when Downloading Torrents!
Your IP Address is 182.232.198.186. Location Thailand,
Your Internet Provider can see when you download torrents! Hide your IP Address with a VPN
ETTV warns: You should use VPN to hide your torrenting. Hide IP with VPN

Download "Mookuthi Amman (2020) [Bengali Dub] 720p WEB-DLRip Saicord"

Title:
Mookuthi Amman (2020) [Bengali Dub] 720p WEB-DLRip Saicord
Category:
Movies > Bollywood
Language:
Bengali
Total Size:
2.09 GB
Info Hash:
ccec46e26eb0b945c3979da6fcbf884ffb03451a
Added By:
MelbetCinema7
Date Added:
3 days ago
  • Seeds: 12
  • Leechers: 0
  • Uploaded By: MelbetCinema7
Uploaders Description









Video

ID                          : 1

Format                      : AVC

Format/Info                 : Advanced Video Codec

Format profile              : [email protected]

Format settings             : CABAC / 4 Ref Frames

Format settings, CABAC      : Yes

Format settings, Reference  : 4 frames

Format settings, GOP        : M=1, N=15

Codec ID                    : avc1

Codec ID/Info               : Advanced Video Coding

Duration                    : 2 h 16 min

Bit rate                    : 1 998 kb/s

Width                       : 1 280 pixels

Height                      : 534 pixels

Display aspect ratio        : 2.40:1

Frame rate mode             : Constant

Frame rate                  : 24.000 FPS

Standard                    : Component

Color space                 : YUV

Chroma subsampling          : 4:2:0

Bit depth                   : 8 bits

Scan type                   : Progressive

Bits/(Pixel*Frame)          : 0.122

Stream size                 : 1.91 GiB (91%)

Language                    : English

Encoded date                : UTC 2021-10-02 23:32:55

Tagged date                 : UTC 2021-10-02 23:32:55

Color range                 : Limited

Codec configuration box     : avcC


Audio

ID                          : 2

Format                      : AAC LC

Format/Info                 : Advanced Audio Codec Low Complexity

Codec ID                    : mp4a-40-2

Duration                    : 2 h 16 min

Bit rate mode               : Variable

Bit rate                    : 192 kb/s

Maximum bit rate            : 379 kb/s

Channel(s)                  : 2 channels

Channel layout              : L R

Sampling rate               : 48.0 kHz

Frame rate                  : 46.875 FPS (1024 SPF)

Compression mode            : Lossy

Stream size                 : 185 MiB (9%)

Language                    : Bengali

Encoded date                : UTC 2021-10-02 23:32:55

Tagged date                 : UTC 2021-10-02 23:32:55


File List:

Mookuthi Amman (2020) [Bengali Dub] 720p WEB-DLRip Saicord mp4
....
2.09 GB