Hide Your IP Address when Downloading Torrents!
Your IP Address is 182.232.198.186. Location Thailand,
Your Internet Provider can see when you download torrents! Hide your IP Address with a VPN
ETTV warns: You should use VPN to hide your torrenting. Hide IP with VPN

Download "118 (2019) [Hindi Dub] 1080p WEB-DLRip Saicord"

Title:
118 (2019) [Hindi Dub] 1080p WEB-DLRip Saicord
Category:
Movies > Bollywood
Language:
Hindi
Total Size:
3.70 GB
Info Hash:
9dbad2beb00f3708607c850ab083a946ff914e24
Added By:
MelbetCinema7
Date Added:
3 days ago
  • Seeds: 9
  • Leechers: 7
  • Uploaded By: MelbetCinema7
Uploaders Description









Video

ID                                       : 1

Format                                   : AVC

Format/Info                              : Advanced Video Codec

Format profile                           : [email protected]

Format settings                          : CABAC / 1 Ref Frames

Format settings, CABAC                   : Yes

Format settings, Reference frames        : 1 frame

Codec ID                                 : avc1

Codec ID/Info                            : Advanced Video Coding

Duration                                 : 2 h 6 min

Bit rate mode                            : Constant

Bit rate                                 : 4 000 kb/s

Width                                    : 1 920 pixels

Height                                   : 800 pixels

Display aspect ratio                     : 2.40:1

Frame rate mode                          : Constant

Frame rate                               : 25.000 FPS

Color space                              : YUV

Chroma subsampling                       : 4:2:0

Bit depth                                : 8 bits

Scan type                                : Progressive

Bits/(Pixel*Frame)                       : 0.104

Stream size                              : 3.52 GiB (95%)

Codec configuration box                  : avcC


Audio

ID                                       : 2

Format                                   : AAC LC

Format/Info                              : Advanced Audio Codec Low Complexity

Codec ID                                 : mp4a-40-2

Duration                                 : 2 h 6 min

Source duration                          : 2 h 6 min

Bit rate mode                            : Constant

Bit rate                                 : 192 kb/s

Channel(s)                               : 2 channels

Channel layout                           : L R

Sampling rate                            : 48.0 kHz

Frame rate                               : 46.875 FPS (1024 SPF)

Compression mode                         : Lossy

Stream size                              : 174 MiB (5%)

Source stream size                       : 174 MiB (5%)

Default                                  : Yes

Alternate group                          : 1

mdhd_Duration                            : 7569430


File List:

118 (2019) [Hindi Dub] 1080p WEB-DLRip Saicord mp4
....
3.70 GB