Hide Your IP Address when Downloading Torrents!
Your IP Address is 182.232.198.186. Location Thailand,
Your Internet Provider can see when you download torrents! Hide your IP Address with a VPN
ETTV warns: You should use VPN to hide your torrenting. Hide IP with VPN

Download "Titans 2018 S03E12 Prodigal WEB-DL XviD B4ND1T69"

Title:
Titans 2018 S03E12 Prodigal WEB-DL XviD B4ND1T69
Category:
TV > SD/XVID
Language:
English
Total Size:
251 MB
Info Hash:
2231a618c553b75d1488536daef50dbd9581f560
Added By:
B4ND1T69
Date Added:
1 week ago
  • Seeds: 77
  • Leechers: 20
  • Uploaded By: B4ND1T69
Uploaders Description
Titans.2018.S03E12.Prodigal.WEB-DL.XviD.B4ND1T69



Creators: Greg Berlanti, Akiva Goldsman, Geoff Johns
Stars: Brenton Thwaites, Teagan Croft, Anna Diop

Plot/Story:
Prodigal
After Nightwing and Red Hood’s battle, Rachel and Gar try to save their friend. Meanwhile, Jason questions his allegiance. With Barbara behind bars, Donna leads her own resistance operation, and Conner helps Blackfire recover her ship.

General
Complete name               : Titans.2018.S03E12.Prodigal.WEB-DL.XviD.B4ND1T69.avi
Format                      : AVI
Format/Info                 : Audio Video Interleave
File size                   : 251 MiB
Duration                    : 48 min 52 s
Overall bit rate            : 719 kb/s
Subtitles                   : Yes...Included(HI)

Video
ID                          : 0
Format                      : MPEG-4 Visual
Format profile              : Advanced [email protected]
Format settings, BVOP       : 2
Format settings, QPel       : No
Format settings, GMC        : No warppoints
Format settings, Matrix     : Default (H.263)
Codec ID                    : XVID
Codec ID/Hint               : XviD
Duration                    : 48 min 52 s
Bit rate                    : 577 kb/s
Width                       : 640 pixels
Height                      : 288 pixels
Display aspect ratio        : 2.222
Frame rate                  : 23.976 (24000/1001) FPS
Color space                 : YUV
Chroma subsampling          : 4:2:0
Bit depth                   : 8 bits
Scan type                   : Progressive
Compression mode            : Lossy
Bits/(Pixel*Frame)          : 0.131
Stream size                 : 202 MiB (80%)
Writing library             : XviD 64

Audio
ID                          : 1
Format                      : MPEG Audio
Format version              : Version 1
Format profile              : Layer 3
Codec ID                    : 55
Codec ID/Hint               : MP3
Duration                    : 48 min 52 s
Bit rate mode               : Constant
Bit rate                    : 128 kb/s
Channel(s)                  : 2 channels
Sampling rate               : 48.0 kHz
Compression mode            : Lossy
Stream size                 : 44.8 MiB (18%)
Alignment                   : Aligned on interleaves
Interleave, duration        : 24  ms (0.58 video frame)

Screenshots:







Please Seed For As Long As Possible
Or At Least 1:1 Ratio...Thanks
Enjoy Peeps


File List:

Downloaded from 1337x txt
....
61.00 B
Downloaded from ETTV txt
....
55.00 B
Downloaded from Glodls to txt
....
261.00 B
Downloaded from ProStyleX txt
....
54.00 B
Downloaded from The Pirate Bay txt
....
57.00 B
Titans 2018 S03E12 Prodigal WEB-DL XviD B4ND1T69 avi
....
251 MB
Titans 2018 S03E12 Prodigal WEB-DL XviD B4ND1T69 srt
....
48.04 kB