Hide Your IP Address when Downloading Torrents!
Your IP Address is 182.232.198.186. Location Thailand,
Your Internet Provider can see when you download torrents! Hide your IP Address with a VPN
ETTV warns: You should use VPN to hide your torrenting. Hide IP with VPN

Download "Dan Browns The Lost Symbol S01E05 1080p 10bit DDP 5 1 x265 [HashMiner]"

Title:
Dan Browns The Lost Symbol S01E05 1080p 10bit DDP 5 1 x265 [HashMiner]
Category:
TV > HEVC/x265
Language:
English
Total Size:
404 MB
Info Hash:
dc349db8e2eb6d68c0cd42e74c5d230b3d393d2f
Added By:
HashMiner
Date Added:
1 week ago
  • Seeds: 218
  • Leechers: 60
  • Uploaded By: HashMiner
Uploaders Description


Encoded by HashMiner!


HASHMINER ENCODES!


 ══════════════════════════════════════════════════════════════════════════


Audio Language: ENGLISH.

Subtitles Included: English, Spanish.
.

 ══════════════════════════════════════════════════════════════════════════







Genre: Adventure Thriller.
Stars : Ashley Zukerman, Valorie Curry, Eddie Izzard, Sumalee Montano, Rick Gonzalez
Plot :Based on Dan Brown's thriller novel The Lost Symbol, the series follows the early adventures of famed Harvard symbologist Robert Langdon, who finds himself pulled into a series of deadly puzzles when his mentor is kidnapped. The CIA forces him onto a task force where he uncovers a chilling conspiracy.

 ══════════════════════════════════════════════════════════════════════════









══════════════════════════════════════════════════════════════════════════



General
Unique ID                      : 21888755490110202384258010478896447508 (0x10779EF7857CCE017C7CD2509D338014)
Complete name                  : Dan.Browns.The.Lost.Symbol.S01E05.Melencolia.I.1080p.10bit.DDP.5.1.x265.[HashMiner].mkv
Format                         : Matroska
Format version                 : Version 4 / Version 2
File size                      : 404 MiB
Duration                       : 43 min 5 s
Overall bit rate               : 1 309 kb/s
Writing library                : Lavf58.76.100
ErrorDetectionType             : Per level 1
Video
ID                             : 1
Format                         : HEVC
Format/Info                    : High Efficiency Video Coding
Format profile                 : Main [email protected]@Main
Codec ID                       : V_MPEGH/ISO/HEVC
Duration                       : 43 min 5 s
Bit rate                       : 771 kb/s
Width                          : 1 920 pixels
Height                         : 1 080 pixels
Display aspect ratio           : 16:9
Frame rate mode                : Constant
Frame rate                     : 23.976 (24000/1001) FPS
Color space                    : YUV
Chroma subsampling             : 4:2:0
Bit depth                      : 10 bits
Bits/(Pixel*Frame)             : 0.016
Stream size                    : 238 MiB (59%)
Writing library                : x265 3.5+1-f0c1022b6:[Windows][clang 12.0.0][64 bit] 10bit
Encoding settings              : cpuid=1111039 / frame-threads=3 / numa-pools=12 / wpp / no-pmode / no-pme / no-psnr / no-ssim / log-level=2 / input-csp=1 / input-res=1920x1080 / interlace=0 / total-frames=0 / level-idc=0 / high-tier=1 / uhd-bd=0 / ref=1 / no-allow-non-conformance / no-repeat-headers / annexb / no-aud / no-hrd / info / hash=0 / no-temporal-layers / open-gop / min-keyint=24 / keyint=240 / gop-lookahead=0 / bframes=3 / b-adapt=0 / b-pyramid / bframe-bias=0 / rc-lookahead=10 / lookahead-slices=6 / scenecut=40 / hist-scenecut=0 / radl=0 / no-splice / no-intra-refresh / ctu=32 / min-cu-size=8 / no-rect / no-amp / max-tu-size=32 / tu-inter-depth=1 / tu-intra-depth=1 / limit-tu=0 / rdoq-level=0 / dynamic-rd=0.00 / no-ssim-rd / signhide / no-tskip / nr-intra=0 / nr-inter=0 / no-constrained-intra / strong-intra-smoothing / max-merge=2 / limit-refs=0 / no-limit-modes / me=1 / subme=1 / merange=57 / temporal-mvp / no-frame-dup / no-hme / no-weightp / no-weightb / no-analyze-src-pics / deblock=0:0 / no-sao / no-sao-non-deblock / rd=2 / selective-sao=0 / early-skip / rskip / fast-intra / no-tskip-fast / no-cu-lossless / no-b-intra / no-splitrd-skip / rdpenalty=0 / psy-rd=2.00 / psy-rdoq=0.00 / no-rd-refine / no-lossless / cbqpoffs=0 / crqpoffs=0 / rc=crf / crf=20.0 / qcomp=0.60 / qpstep=4 / stats-write=0 / stats-read=0 / ipratio=1.40 / pbratio=1.30 / aq-mode=1 / aq-strength=0.00 / cutree / zone-count=0 / no-strict-cbr / qg-size=32 / no-rc-grain / qpmax=69 / qpmin=0 / no-const-vbv / sar=1 / overscan=0 / videoformat=5 / range=0 / colorprim=1 / transfer=1 / colormatrix=1 / chromaloc=0 / display-window=0 / cll=0,0 / min-luma=0 / max-luma=1023 / log2-max-poc-lsb=8 / vui-timing-info / vui-hrd-info / slices=1 / no-opt-qp-pps / no-opt-ref-list-length-pps / no-multi-pass-opt-rps / scenecut-bias=0.05 / hist-threshold=0.03 / no-opt-cu-delta-qp / no-aq-motion / no-hdr10 / no-hdr10-opt / no-dhdr10-opt / no-idr-recovery-sei / analysis-reuse-level=0 / analysis-save-reuse-level=0 / analysis-load-reuse-level=0 / scale-factor=0 / refine-intra=0 / refine-inter=0 / refine-mv=1 / refine-ctu-distortion=0 / no-limit-sao / ctu-info=0 / no-lowpass-dct / refine-analysis-type=0 / copy-pic=1 / max-ausize-factor=1.0 / no-dynamic-refine / no-single-sei / no-hevc-aq / no-svt / no-field / qp-adaptation-range=1.00 / scenecut-aware-qp=0conformance-window-offsets / right=0 / bottom=0 / decoder-max-rate=0 / no-vbv-live-multi-pass
Default                        : Yes
Forced                         : No
Color range                    : Limited
Color primaries                : BT.709
Transfer characteristics       : BT.709
Matrix coefficients            : BT.709
DURATION                       : 00:43:05.296000000
Audio
ID                             : 2
Format                         : E-AC-3
Format/Info                    : Enhanced Audio Coding 3
Format settings, Endianness    : Big
Codec ID                       : A_EAC3
Duration                       : 43 min 5 s
Bit rate mode                  : Constant
Bit rate                       : 512 kb/s
Channel(s)                     : 6 channels
Channel positions              : Front: L C R, Side: L R, LFE
Sampling rate                  : 48.0 kHz
Frame rate                     : 187.500 FPS (256 SPF)
Compression mode               : Lossy
Delay relative to video        : -5 ms
Stream size                    : 158 MiB (39%)
Title                          : Surround
Language                       : English
Service kind                   : Complete Main
Default                        : Yes
Forced                         : No
DURATION                       : 00:43:05.344000000
Text #1
ID                             : 3
Format                         : ASS
Codec ID                       : S_TEXT/ASS
Codec ID/Info                  : Advanced Sub Station Alpha
Compression mode               : Lossless
Language                       : English
Default                        : No
Forced                         : No
DURATION                       : 00:41:13.687000000
Text #2
ID                             : 4
Format                         : ASS
Codec ID                       : S_TEXT/ASS
Codec ID/Info                  : Advanced Sub Station Alpha
Compression mode               : Lossless
Language                       : Spanish
Default                        : No
Forced                         : No
DURATION                       : 00:40:48.036000000


 ══════════════════════════════════════════════════════════════════════════




If you like my Encodes, Please consider donating


Bitcoin: 13Gm1RLtiLspyL7NrXZmeVKCXHTC5Eih1h

Ethereum: 0x1bA096179a4E3f9d6Ce3F89Ba7b9Ff94c325AdE8

Monero:
469v2aUdtVuH8VAU9fuPkNHA2gdkkST9p8QEZ1NyBCX2ekH47R6cpb77i2j7zG989v34GiZgW8eqcDnTTAzFmexE2cPRCzA



File List:

Dan Browns The Lost Symbol S01E05 Melencolia I 1080p 10bit DDP 5 1 x265 [HashMiner] mkv
....
404 MB
Uploaded by HashMiner! [ReadMe] txt
....
1.49 kB