Hide Your IP Address when Downloading Torrents!
Your IP Address is 182.232.198.186. Location Thailand,
Your Internet Provider can see when you download torrents! Hide your IP Address with a VPN
ETTV warns: You should use VPN to hide your torrenting. Hide IP with VPN

Download "Mookuthi Amman (2020) [Hindi Dub] WEB-DLRip Saicord"

Title:
Mookuthi Amman (2020) [Hindi Dub] WEB-DLRip Saicord
Category:
Movies > SD X264/H264
Language:
Hindi
Total Size:
1.33 GB
Info Hash:
df59a1fc0a97deac33739167375dc37f5db5749e
Added By:
MelbetCinema7
Date Added:
3 days ago
  • Seeds: 9
  • Leechers: 5
  • Uploaded By: MelbetCinema7
Uploaders Description









Video

ID                                       : 1

Format                                   : AVC

Format/Info                              : Advanced Video Codec

Format profile                           : [email protected]

Format settings                          : CABAC / 1 Ref Frames

Format settings, CABAC                   : Yes

Format settings, Reference frames        : 1 frame

Codec ID                                 : avc1

Codec ID/Info                            : Advanced Video Coding

Duration                                 : 2 h 16 min

Bit rate mode                            : Constant

Bit rate                                 : 1 200 kb/s

Width                                    : 720 pixels

Height                                   : 406 pixels

Display aspect ratio                     : 16:9

Frame rate mode                          : Constant

Frame rate                               : 24.000 FPS

Color space                              : YUV

Chroma subsampling                       : 4:2:0

Bit depth                                : 8 bits

Scan type                                : Progressive

Bits/(Pixel*Frame)                       : 0.171

Stream size                              : 1.14 GiB (86%)

Codec configuration box                  : avcC


Audio

ID                                       : 2

Format                                   : AAC LC

Format/Info                              : Advanced Audio Codec Low Complexity

Codec ID                                 : mp4a-40-2

Duration                                 : 2 h 16 min

Source duration                          : 2 h 16 min

Bit rate mode                            : Constant

Bit rate                                 : 192 kb/s

Channel(s)                               : 2 channels

Channel layout                           : L R

Sampling rate                            : 48.0 kHz

Frame rate                               : 46.875 FPS (1024 SPF)

Compression mode                         : Lossy

Stream size                              : 188 MiB (14%)

Source stream size                       : 188 MiB (14%)

Default                                  : Yes

Alternate group                          : 1

mdhd_Duration                            : 8179371


File List:

Mookuthi Amman (2020) [Hindi Dub] 400p WEB-DLRip Saicord mp4
....
1.33 GB