Hide Your IP Address when Downloading Torrents!
Your IP Address is 182.232.198.186. Location Thailand,
Your Internet Provider can see when you download torrents! Hide your IP Address with a VPN
ETTV warns: You should use VPN to hide your torrenting. Hide IP with VPN

Download "Another Life (2021) 720p Full Season 2 [Hindi (DD 5 1) + English] WEBRip x264 AAC ESub By Full4Movies"

Title:
Another Life (2021) 720p Full Season 2 [Hindi (DD 5 1) + English] WEBRip x264 AAC ESub By Full4Movies
Category:
TV > HD/X264/H264
Language:
Hindi
Total Size:
3.98 GB
Info Hash:
59adb1f90400a17ff34b7161f7d8ff9b38437999
Added By:
full4movies
Date Added:
1 week ago
  • Seeds: 33
  • Leechers: 64
  • Uploaded By: full4movies
Uploaders Description


Visit Us = https://www.full4movies.site/



General
Complete name                  : Another Life (2021) 720p Full Season 2 [Hindi (DD 5.1) + English] WEBRip x264 AAC ESub By Full4Movies
Format                         : Matroska
Format version                 : Version 4
File size                      : 403 MiB
Duration                       : 39 min 55 s
Overall bit rate               : 1 410 kb/s
Movie name                     : www.Full4movies.Site
Encoded date                   : UTC 2021-10-14 16:52:39 / UTC 
Writing application            : mkvmerge v8.3.0 ('Over the Horizon') 64bit
Writing library                : libebml v1.3.1 + libmatroska v1.4.2 / Lavf55.12.0
Attachments                    : 383845052472320.jpg

Video
ID                             : 1
Format                         : AVC
Format/Info                    : Advanced Video Codec
Format profile                 : [email protected]
Format settings                : CABAC / 4 Ref Frames
Format settings, CABAC         : Yes
Format settings, Reference fra : 4 frames
Codec ID                       : V_MPEG4/ISO/AVC
Duration                       : 39 min 53 s
Bit rate                       : 1 200 kb/s
Width                          : 1 280 pixels
Height                         : 640 pixels
Display aspect ratio           : 2.000
Frame rate mode                : Constant
Frame rate                     : 23.976 (24000/1001) FPS
Color space                    : YUV
Chroma subsampling             : 4:2:0
Bit depth                      : 8 bits
Scan type                      : Progressive
Bits/(Pixel*Frame)             : 0.061
Stream size                    : 343 MiB (85%)
Writing library                : x264 core 142 r2479 dd79a61
Default                        : Yes
Forced                         : No
Color range                    : Limited
Color primaries                : BT.709
Transfer characteristics       : BT.709
Matrix coefficients            : BT.709

Audio #1
ID                             : 2
Format                         : AAC LC SBR
Format/Info                    : Advanced Audio Codec Low Complexity with Spectral Band Replication
Commercial name                : HE-AAC
Format settings                : NBC
Codec ID                       : A_AAC-5
Duration                       : 39 min 55 s
Bit rate                       : 128 kb/s
Channel(s)                     : 6 channels
Channel layout                 : C L R Ls Rs LFE
Sampling rate                  : 48.0 kHz
Frame rate                     : 23.438 FPS (2048 SPF)
Compression mode               : Lossy
Delay relative to video        : -105 ms
Stream size                    : 36.6 MiB (9%)
Title                          : Surround
Language                       : Hindi
Default                        : Yes
Forced                         : No

Audio #2
ID                             : 3
Format                         : AAC LC SBR
Format/Info                    : Advanced Audio Codec Low Complexity with Spectral Band Replication
Commercial name                : HE-AAC
Format settings                : NBC
Codec ID                       : A_AAC-5
Duration                       : 39 min 55 s
Bit rate                       : 80.0 kb/s
Channel(s)                     : 2 channels
Channel layout                 : L R
Sampling rate                  : 48.0 kHz
Frame rate                     : 23.438 FPS (2048 SPF)
Compression mode               : Lossy
Delay relative to video        : -105 ms
Stream size                    : 22.8 MiB (6%)
Title                          : Stereo
Language                       : English
Default                        : No
Forced                         : No

Text
ID                             : 4
Format                         : ASS
Codec ID                       : S_TEXT/ASS
Codec ID/Info                  : Advanced Sub Station Alpha
Duration                       : 38 min 17 s
Bit rate                       : 155 b/s
Count of elements              : 615
Compression mode               : Lossless
Stream size                    : 43.7 KiB (0%)
Language                       : English
Default                        : No
Forced                         : No

Screen Shoots



File List:

383845052472320 jpg
....
9.60 kB
Another Life S02E01 Live to Fight Another Day 720p NF WEB-DL DD+5 1 Atmos x264-Full4Movies mkv
....
403 MB
Another Life S02E02 Smoke and Mirrors 720p NF WEB-DL DD+5 1 Atmos x264-Full4Movies mkv
....
380 MB
Another Life S02E03 My Own Worst Enemy 720p NF WEB-DL DD+5 1 Atmos x264-Full4Movies mkv
....
372 MB
Another Life S02E04 Will to Power 720p NF WEB-DL DD+5 1 Atmos x264-Full4Movies mkv
....
381 MB
Another Life S02E05 a Better Earth 720p NF WEB-DL DD+5 1 Atmos x264-Full4Movies mkv
....
432 MB
Another Life S02E06 Gift From the Gods 720p NF WEB-DL DD+5 1 Atmos x264-Full4Movies mkv
....
460 MB
Another Life S02E07 Never Gonna Give You Up 720p NF WEB-DL DD+5 1 Atmos x264-Full4Movies mkv
....
483 MB
Another Life S02E08 Just a Rat in a Cage 720p NF WEB-DL DD+5 1 Atmos x264-Full4Movies mkv
....
397 MB
Another Life S02E09 Whats Bourne Whats Left Behind 720p NF WEB-DL DD+5 1 Atmos x264-Full4Movies mkv
....
376 MB
Another Life S02E10 DDay 720p NF WEB-DL DD+5 1 Atmos x264-Full4Movies mkv
....
393 MB