Hide Your IP Address when Downloading Torrents!
Your IP Address is 182.232.198.186. Location Thailand,
Your Internet Provider can see when you download torrents! Hide your IP Address with a VPN
ETTV warns: You should use VPN to hide your torrenting. Hide IP with VPN

Download "Venom 2 Let There Be Carnage (2021) 480p HDTS Dual Audio [Hindi (Clean) + English] x264 AAC By Full4Movies"

Title:
Venom 2 Let There Be Carnage (2021) 480p HDTS Dual Audio [Hindi (Clean) + English] x264 AAC By Full4Movies
Category:
Movies > Dubs/Dual Audio
Language:
Hindi
Total Size:
386 MB
Info Hash:
389095d6e08645bc1da1986f7d1bda9c04c7cffb
Added By:
full4movies
Date Added:
1 week ago
  • Seeds: 28
  • Leechers: 16
  • Uploaded By: full4movies
Uploaders Description


Visit Us = https://www.full4movies.site/



General
Complete name                  : Venom 2 Let There Be Carnage (2021) 480p HDTS Dual Audio [Hindi (Clean) + English] x264 AAC By Full4Movies.mkv
Format                         : Matroska
Format version                 : Version 4
File size                      : 386 MiB
Duration                       : 1 h 25 min
Overall bit rate               : 632 kb/s
Encoded date                   : UTC 2021-10-14 18:29:49
Writing application            : mkvmerge v8.3.0 ('Over the Horizon') 64bit
Writing library                : libebml v1.3.1 + libmatroska v1.4.2
Attachments                    : 383845052472320.jpg

Video
ID                             : 1
Format                         : AVC
Format/Info                    : Advanced Video Codec
Format profile                 : [email protected]
Format settings                : CABAC / 4 Ref Frames
Format settings, CABAC         : Yes
Format settings, Reference fra : 4 frames
Codec ID                       : V_MPEG4/ISO/AVC
Duration                       : 1 h 25 min
Bit rate                       : 400 kb/s
Width                          : 720 pixels
Height                         : 392 pixels
Display aspect ratio           : 1.85:1
Original display aspect ratio  : 1.85:1
Frame rate mode                : Constant
Frame rate                     : 29.970 (30000/1001) FPS
Color space                    : YUV
Chroma subsampling             : 4:2:0
Bit depth                      : 8 bits
Scan type                      : Progressive
Bits/(Pixel*Frame)             : 0.047
Stream size                    : 244 MiB (63%)
Title                          : www.Full4movies.Site
Writing library                : x264 core 142 r2479 dd79a61
Default                        : Yes
Forced                         : No
Color range                    : Limited
Color primaries                : BT.709
Transfer characteristics       : BT.709
Matrix coefficients            : BT.709

Audio #1
ID                             : 2
Format                         : AAC LC
Format/Info                    : Advanced Audio Codec Low Complexity
Codec ID                       : A_AAC-2
Duration                       : 1 h 25 min
Bit rate                       : 192 kb/s
Channel(s)                     : 2 channels
Channel layout                 : L R
Sampling rate                  : 48.0 kHz
Frame rate                     : 46.875 FPS (1024 SPF)
Compression mode               : Lossy
Delay relative to video        : -105 ms
Stream size                    : 116 MiB (30%)
Language                       : Hindi
Default                        : Yes
Forced                         : No

Audio #2
ID                             : 3
Format                         : AAC LC SBR
Format/Info                    : Advanced Audio Codec Low Complexity with Spectral Band Replication
Commercial name                : HE-AAC
Format settings                : NBC
Codec ID                       : A_AAC-5
Duration                       : 1 h 25 min
Bit rate                       : 40.0 kb/s
Channel(s)                     : 2 channels
Channel layout                 : L R
Sampling rate                  : 48.0 kHz
Frame rate                     : 23.438 FPS (2048 SPF)
Compression mode               : Lossy
Delay relative to video        : -105 ms
Stream size                    : 24.5 MiB (6%)
Language                       : English
Default                        : No
Forced                         : No

Screen Shoots







File List:

Venom 2 Let There Be Carnage (2021) 480p HDTS Dual Audio [Hindi (Clean) + English] x264 AAC By Full4Movies mkv
....
386 MB