Hide Your IP Address when Downloading Torrents!
Your IP Address is 182.232.198.186. Location Thailand,
Your Internet Provider can see when you download torrents! Hide your IP Address with a VPN
ETTV warns: You should use VPN to hide your torrenting. Hide IP with VPN

Download "Sanak (2021) Hindi UNTOUCHED 720p DSNP WEB-DL AAC2 0 x264 ESub 1GB [Themoviesboss]"

Title:
Sanak (2021) Hindi UNTOUCHED 720p DSNP WEB-DL AAC2 0 x264 ESub 1GB [Themoviesboss]
Category:
Movies > Bollywood
Language:
Hindi
Total Size:
1.16 GB
Info Hash:
f8d894e5cca5e1581d26fddd0ff9a6bb3c74d4ff
Added By:
Suryadipta
Date Added:
1 week ago
  • Seeds: 6277
  • Leechers: 4290
  • Uploaded By: Suryadipta
Uploaders Description
Visit Our Site 
   themoviesboss.com



Encoded by                               : Harley Quinn



Movie name :

Sanak (2021) Hindi UNTOUCHED 720p DSNP WEB-DL AAC2.0 x264 ESub 1GB [Themoviesboss]

General 
Format : Matroska 
Format version : Version 4 
File size : 1.16 GiB 
Duration : 1 h 56 min 
Overall bit rate : 1 422 kb/s 
Encoded date : UTC 2021-10-14 19:06:49 
Writing application : mkvmerge v60.0.0 ('Are We Copies?') 64-bit 
Writing library : libebml v1.4.2 + libmatroska v1.6.4 

Video 
ID : 1 
Format : AVC 
Format/Info : Advanced Video Codec 
Format profile : [email protected] 
Format settings : CABAC / 5 Ref Frames 
Format settings, CABAC : Yes 
Format settings, Reference frames : 5 frames 
Codec ID : V_MPEG4/ISO/AVC 
Duration : 1 h 56 min 
Bit rate : 1 300 kb/s 
Width : 1 280 pixels 
Height : 720 pixels 
Display aspect ratio : 16:9 
Frame rate mode : Constant 
Frame rate : 24.000 FPS 
Color space : YUV 
Chroma subsampling : 4:2:0 
Bit depth : 8 bits 
Scan type : Progressive 
Bits/(Pixel*Frame) : 0.059 
Stream size : 1.05 GiB (91%) 
Writing library : x264 core 155 r2917+2 f192430 
 Language : Hindi 
Default : Yes 
Forced : No 
Color range : Limited 
Color primaries : BT.709 
Matrix coefficients : BT.709 

Audio 
ID : 2 
Format : AAC LC 
Format/Info : Advanced Audio Codec Low Complexity 
Codec ID : A_AAC-2 
Duration : 1 h 56 min 
Bit rate : 129 kb/s 
Channel(s) : 2 channels 
Channel layout : L R 
Sampling rate : 48.0 kHz 
Frame rate : 46.875 FPS (1024 SPF) 
Compression mode : Lossy 
Stream size : 107 MiB (9%) 
Language : Hindi 
Default : Yes 
Forced : No 

Text 
ID : 3 
Format : S_TEXT/WEBVTT 
Codec ID : S_TEXT/WEBVTT 
Duration : 1 h 53 min 
Bit rate : 43 b/s 
Count of elements : 1213 
Stream size : 35.9 KiB (0%) 
Language : English 
Default : Yes 
Forced : No 

                                        











File List:

Sanak (2021) Hindi UNTOUCHED 720p DSNP WEB-DL AAC2 0 x264 ESub 1GB [Themoviesboss] mkv
....
1.16 GB