Hide Your IP Address when Downloading Torrents!
Your IP Address is 182.232.198.186. Location Thailand,
Your Internet Provider can see when you download torrents! Hide your IP Address with a VPN
ETTV warns: You should use VPN to hide your torrenting. Hide IP with VPN

Download "Honsla Rakh 2021 x264 720p AmaZoNe WebHD Esub AAC Punjabi THE GOPI SAHI"

Title:
Honsla Rakh 2021 x264 720p AmaZoNe WebHD Esub AAC Punjabi THE GOPI SAHI
Category:
Movies > Bollywood
Language:
Punjabi
Total Size:
1.11 GB
Info Hash:
3146eeac3e4193ac63f64847d3729e216b077945
Added By:
GOPISAHI
Date Added:
4 days ago
  • Seeds: 2186
  • Leechers: 658
  • Uploaded By: GOPISAHI
Uploaders Description


Honsla Rakh 2021 x264 720p AmaZoNe WebHD Esub AAC Punjabi THE GOPI SAHI

Format                         : Matroska
Format version                 : Version 4
File size                      : 1.11 GiB
Duration                       : 2 h 25 min
Overall bit rate               : 1 091 kb/s
Movie name                     : Honsla Rakh 2021 GOPI SAHI
Encoded date                   : UTC 2021-11-24 06:03:45

Video
ID                             : 1
Format                         : AVC
Format/Info                    : Advanced Video Codec
Format profile                 : [email protected]
Format settings                : CABAC / 12 Ref Frames
Format settings, CABAC         : Yes
Format settings, Reference fra : 12 frames
Codec ID                       : V_MPEG4/ISO/AVC
Duration                       : 2 h 25 min
Bit rate                       : 899 kb/s
Width                          : 1 280 pixels
Height                         : 534 pixels
Display aspect ratio           : 2.35:1
Frame rate mode                : Constant
Frame rate                     : 24.000 FPS
Color space                    : YUV
Chroma subsampling             : 4:2:0
Bit depth                      : 8 bits
Scan type                      : Progressive
Bits/(Pixel*Frame)             : 0.055
Stream size                    : 932 MiB (82%)
Title                          : GOPI SAHI
Writing library                : x264 core 163 r3059 b684ebe0

Audio
ID                             : 2
Format                         : AAC LC
Format/Info                    : Advanced Audio Codec Low Complexity
Codec ID                       : A_AAC-2
Duration                       : 2 h 25 min
Bit rate                       : 192 kb/s
Channel(s)                     : 6 channels
Channel layout                 : C L R Ls Rs LFE
Sampling rate                  : 48.0 kHz
Frame rate                     : 46.875 FPS (1024 SPF)
Compression mode               : Lossy
Delay relative to video        : -21 ms
Stream size                    : 197 MiB (17%)
Title                          : GOPI SAHI
Language                       : Panjabi
Default                        : Yes
Forced                         : No

Text
Language                       : English







File List:

Honsla Rakh 2021 x264 720p AmaZoNe WebHD Esub AAC Punjabi THE GOPI SAHI mkv
....
1.11 GB