Hide Your IP Address when Downloading Torrents!
Your IP Address is 182.232.198.186. Location Thailand,
Your Internet Provider can see when you download torrents! Hide your IP Address with a VPN
ETTV warns: You should use VPN to hide your torrenting. Hide IP with VPN

Download "A Boy Called Christmas (2021) 1080p WEB-HDRip Dual Audio [Hindi ORG DD 5 1 + English] x264 AAC ESub By Full4Movies"

Title:
A Boy Called Christmas (2021) 1080p WEB-HDRip Dual Audio [Hindi ORG DD 5 1 + English] x264 AAC ESub By Full4Movies
Category:
Movies > Dubs/Dual Audio
Language:
Hindi
Total Size:
2.02 GB
Info Hash:
9bbd0327d4a0762364ca1006cf0614c568fd0e18
Added By:
full4movies
Date Added:
3 days ago
  • Seeds: 81
  • Leechers: 39
  • Uploaded By: full4movies
Uploaders Description


Visit Us = https://www.full4movies.cfd/



General
Complete name                  : A Boy Called Christmas (2021) 1080p WEB-HDRip Dual Audio [Hindi ORG DD 5.1 + English] x264 AAC ESub By Full4Movies.mkv
Format                         : Matroska
Format version                 : Version 4
File size                      : 2.02 GiB
Duration                       : 1 h 46 min
Overall bit rate               : 2 710 kb/s
Encoded date                   : UTC 2021-11-25 08:17:56 / UTC 
Writing application            : mkvmerge v8.3.0 ('Over the Horizon') 64bit
Writing library                : libebml v1.3.1 + libmatroska v1.4.2 / Lavf55.12.0
Attachments                    : 383845052472320.jpg

Video
ID                             : 1
Format                         : AVC
Format/Info                    : Advanced Video Codec
Format profile                 : [email protected]
Format settings                : CABAC / 4 Ref Frames
Format settings, CABAC         : Yes
Format settings, Reference fra : 4 frames
Codec ID                       : V_MPEG4/ISO/AVC
Duration                       : 1 h 46 min
Bit rate                       : 2 500 kb/s
Width                          : 1 920 pixels
Height                         : 804 pixels
Display aspect ratio           : 2.40:1
Frame rate mode                : Constant
Frame rate                     : 24.000 FPS
Color space                    : YUV
Chroma subsampling             : 4:2:0
Bit depth                      : 8 bits
Scan type                      : Progressive
Bits/(Pixel*Frame)             : 0.067
Stream size                    : 1.86 GiB (92%)
Writing library                : x264 core 148 r2708 86b719
Default                        : Yes
Forced                         : No
Color range                    : Limited
Color primaries                : BT.709
Transfer characteristics       : BT.709
Matrix coefficients            : BT.709

Audio #1
ID                             : 2
Format                         : AAC LC SBR
Format/Info                    : Advanced Audio Codec Low Complexity with Spectral Band Replication
Commercial name                : HE-AAC
Format settings                : NBC
Codec ID                       : A_AAC-5
Duration                       : 1 h 46 min
Bit rate                       : 128 kb/s
Channel(s)                     : 6 channels
Channel layout                 : C L R Ls Rs LFE
Sampling rate                  : 48.0 kHz
Frame rate                     : 23.438 FPS (2048 SPF)
Compression mode               : Lossy
Stream size                    : 97.7 MiB (5%)
Language                       : Hindi
Default                        : Yes
Forced                         : No

Audio #2
ID                             : 3
Format                         : AAC LC SBR
Format/Info                    : Advanced Audio Codec Low Complexity with Spectral Band Replication
Commercial name                : HE-AAC
Format settings                : NBC
Codec ID                       : A_AAC-5
Duration                       : 1 h 46 min
Bit rate                       : 80.0 kb/s
Channel(s)                     : 2 channels
Channel layout                 : L R
Sampling rate                  : 48.0 kHz
Frame rate                     : 23.438 FPS (2048 SPF)
Compression mode               : Lossy
Stream size                    : 61.1 MiB (3%)
Language                       : English
Default                        : No
Forced                         : No

Text
ID                             : 4
Format                         : ASS
Codec ID                       : S_TEXT/ASS
Codec ID/Info                  : Advanced Sub Station Alpha
Duration                       : 1 h 41 min
Bit rate                       : 147 b/s
Count of elements              : 1638
Compression mode               : Lossless
Stream size                    : 110 KiB (0%)
Language                       : English
Default                        : No
Forced                         : No

Screen Shoots


File List:

A Boy Called Christmas (2021) 1080p WEB-HDRip Dual Audio [Hindi ORG DD 5 1 + English] x264 AAC ESub By Full4Movies mkv
....
2.02 GB