Hide Your IP Address when Downloading Torrents!
Your IP Address is 182.232.198.186. Location Thailand,
Your Internet Provider can see when you download torrents! Hide your IP Address with a VPN
ETTV warns: You should use VPN to hide your torrenting. Hide IP with VPN

Download "Annaatthe (2021) 480p ORG Hindi True WEB-HDRip x264 AAC DD 2 0 ESub By Full4Movies"

Title:
Annaatthe (2021) 480p ORG Hindi True WEB-HDRip x264 AAC DD 2 0 ESub By Full4Movies
Category:
Movies > Bollywood
Language:
Hindi
Total Size:
509 MB
Info Hash:
9c5e0496bbd7ab1b257f404ed58b1baac5511e31
Added By:
full4movies
Date Added:
1 week ago
  • Seeds: 75
  • Leechers: 86
  • Uploaded By: full4movies
Uploaders Description


Visit Us = https://www.full4movies.cfd/



General
Complete name                  : Annaatthe (2021) 480p ORG Hindi True WEB-HDRip x264 AAC DD 2.0 ESub By Full4Movies.mkv
Format                         : Matroska
Format version                 : Version 4
File size                      : 509 MiB
Duration                       : 2 h 41 min
Overall bit rate               : 442 kb/s
Encoded date                   : UTC 2021-11-25 08:20:48 / UTC 
Writing application            : mkvmerge v8.3.0 ('Over the Horizon') 64bit
Writing library                : libebml v1.3.1 + libmatroska v1.4.2 / Lavf55.12.0
Attachments                    : 383845052472320.jpg

Video
ID                             : 1
Format                         : AVC
Format/Info                    : Advanced Video Codec
Format profile                 : [email protected]
Format settings                : CABAC / 4 Ref Frames
Format settings, CABAC         : Yes
Format settings, Reference fra : 4 frames
Codec ID                       : V_MPEG4/ISO/AVC
Duration                       : 2 h 41 min
Bit rate                       : 400 kb/s
Width                          : 720 pixels
Height                         : 306 pixels
Display aspect ratio           : 2.35:1
Frame rate mode                : Constant
Frame rate                     : 24.000 FPS
Color space                    : YUV
Chroma subsampling             : 4:2:0
Bit depth                      : 8 bits
Scan type                      : Progressive
Bits/(Pixel*Frame)             : 0.076
Stream size                    : 461 MiB (91%)
Writing library                : x264 core 142 r2479 dd79a61
Default                        : Yes
Forced                         : No
Color range                    : Limited
Color primaries                : BT.709
Transfer characteristics       : BT.709
Matrix coefficients            : BT.709

Audio
ID                             : 2
Format                         : AAC LC SBR
Format/Info                    : Advanced Audio Codec Low Complexity with Spectral Band Replication
Commercial name                : HE-AAC
Format settings                : NBC
Codec ID                       : A_AAC-5
Duration                       : 2 h 41 min
Bit rate                       : 40.0 kb/s
Channel(s)                     : 2 channels
Channel layout                 : L R
Sampling rate                  : 48.0 kHz
Frame rate                     : 23.438 FPS (2048 SPF)
Compression mode               : Lossy
Delay relative to video        : -105 ms
Stream size                    : 46.1 MiB (9%)
Language                       : Hindi
Default                        : Yes
Forced                         : No

Text
ID                             : 3
Format                         : ASS
Codec ID                       : S_TEXT/ASS
Codec ID/Info                  : Advanced Sub Station Alpha
Bit rate                       : 0 b/s
Count of elements              : 0
Compression mode               : Lossless
Stream size                    : 0.00 Byte (0%)
Language                       : English
Default                        : No
Forced                         : No

Screen Shoots









File List:

Annaatthe (2021) 480p ORG Hindi True WEB-HDRip x264 AAC DD 2 0 ESub By Full4Movies mkv
....
509 MB