Hide Your IP Address when Downloading Torrents!
Your IP Address is 182.232.198.186. Location Thailand,
Your Internet Provider can see when you download torrents! Hide your IP Address with a VPN
ETTV warns: You should use VPN to hide your torrenting. Hide IP with VPN

Download "Bruised (2021) 1080p WEB-HDRip Dual Audio [Hindi ORG DD 5 1 + English] x264 AAC ESub By Full4Movies mkv"

Title:
Bruised (2021) 1080p WEB-HDRip Dual Audio [Hindi ORG DD 5 1 + English] x264 AAC ESub By Full4Movies mkv
Category:
Movies > HD 720p
Language:
Hindi
Total Size:
2.51 GB
Info Hash:
f2aa71f5d3461600e72891c4041b778c2f338fca
Added By:
full4movies
Date Added:
3 days ago
  • Seeds: 167
  • Leechers: 25
  • Uploaded By: full4movies
Uploaders Description


Visit Us = https://www.full4movies.cfd/



General
Complete name                  : Bruised (2021) 1080p WEB-HDRip Dual Audio [Hindi ORG DD 5.1 + English] x264 AAC ESub By Full4Movies.mkv
Format                         : Matroska
Format version                 : Version 4
File size                      : 2.51 GiB
Duration                       : 2 h 12 min
Overall bit rate               : 2 709 kb/s
Encoded date                   : UTC 2021-11-25 08:24:14 / UTC 
Writing application            : mkvmerge v8.3.0 ('Over the Horizon') 64bit
Writing library                : libebml v1.3.1 + libmatroska v1.4.2 / Lavf55.12.0
Attachments                    : 383845052472320.jpg

Video
ID                             : 1
Format                         : AVC
Format/Info                    : Advanced Video Codec
Format profile                 : [email protected]
Format settings                : CABAC / 4 Ref Frames
Format settings, CABAC         : Yes
Format settings, Reference fra : 4 frames
Codec ID                       : V_MPEG4/ISO/AVC
Duration                       : 2 h 12 min
Bit rate                       : 2 500 kb/s
Width                          : 1 920 pixels
Height                         : 804 pixels
Display aspect ratio           : 2.40:1
Frame rate mode                : Constant
Frame rate                     : 23.976 (24000/1001) FPS
Color space                    : YUV
Chroma subsampling             : 4:2:0
Bit depth                      : 8 bits
Scan type                      : Progressive
Bits/(Pixel*Frame)             : 0.068
Stream size                    : 2.31 GiB (92%)
Writing library                : x264 core 148 r2708 86b7198
Default                        : Yes
Forced                         : No
Color range                    : Limited
Color primaries                : BT.709
Transfer characteristics       : BT.709
Matrix coefficients            : BT.709

Audio #1
ID                             : 2
Format                         : AAC LC SBR
Format/Info                    : Advanced Audio Codec Low Complexity with Spectral Band Replication
Commercial name                : HE-AAC
Format settings                : NBC
Codec ID                       : A_AAC-5
Duration                       : 2 h 12 min
Bit rate                       : 128 kb/s
Channel(s)                     : 6 channels
Channel layout                 : C L R Ls Rs LFE
Sampling rate                  : 48.0 kHz
Frame rate                     : 23.438 FPS (2048 SPF)
Compression mode               : Lossy
Stream size                    : 121 MiB (5%)
Language                       : Hindi
Default                        : Yes
Forced                         : Yes

Audio #2
ID                             : 3
Format                         : AAC LC SBR
Format/Info                    : Advanced Audio Codec Low Complexity with Spectral Band Replication
Commercial name                : HE-AAC
Format settings                : NBC
Codec ID                       : A_AAC-5
Duration                       : 2 h 12 min
Bit rate                       : 80.0 kb/s
Channel(s)                     : 2 channels
Channel layout                 : L R
Sampling rate                  : 48.0 kHz
Frame rate                     : 23.438 FPS (2048 SPF)
Compression mode               : Lossy
Stream size                    : 75.9 MiB (3%)
Language                       : English
Default                        : No
Forced                         : No

Text
ID                             : 4
Format                         : ASS
Codec ID                       : S_TEXT/ASS
Codec ID/Info                  : Advanced Sub Station Alpha
Duration                       : 2 h 4 min
Bit rate                       : 135 b/s
Count of elements              : 1742
Compression mode               : Lossless
Stream size                    : 124 KiB (0%)
Language                       : English
Default                        : No
Forced                         : No

Screen Shoots


File List:

Bruised (2021) 1080p WEB-HDRip Dual Audio [Hindi ORG DD 5 1 + English] x264 AAC ESub By Full4Movies mkv
....
2.51 GB