Hide Your IP Address when Downloading Torrents!
Your IP Address is 182.232.198.186. Location Thailand,
Your Internet Provider can see when you download torrents! Hide your IP Address with a VPN
ETTV warns: You should use VPN to hide your torrenting. Hide IP with VPN

Download "Robin Robin (2021) 480p WEB-HDRip Dual Audio [Hindi ORG DD 2 0 + English] x264 AAC ESub By Full4Movies"

Title:
Robin Robin (2021) 480p WEB-HDRip Dual Audio [Hindi ORG DD 2 0 + English] x264 AAC ESub By Full4Movies
Category:
Movies > Dubs/Dual Audio
Language:
Hindi
Total Size:
113 MB
Info Hash:
9aa85b91fa11549df280dfac146b02627933ae8a
Added By:
full4movies
Date Added:
1 week ago
  • Seeds: 19
  • Leechers: -1
  • Uploaded By: full4movies
Uploaders Description


Visit Us = https://www.full4movies.cfd/



General
Complete name                  : Robin Robin (2021) 480p WEB-HDRip Dual Audio [Hindi ORG DD 2.0 + English] x264 AAC ESub By Full4Movies.mkv
Format                         : Matroska
Format version                 : Version 4
File size                      : 113 MiB
Duration                       : 32 min 39 s
Overall bit rate               : 483 kb/
Encoded date                   : UTC 2021-11-25 08:28:07 / UTC 
Writing application            : mkvmerge v8.3.0 ('Over the Horizon') 64bit
Writing library                : libebml v1.3.1 + libmatroska v1.4.2 / Lavf55.12.0
Attachments                    : 383845052472320.jpg

Video
ID                             : 1
Format                         : AVC
Format/Info                    : Advanced Video Codec
Format profile                 : [email protected]
Format settings                : CABAC / 4 Ref Frames
Format settings, CABAC         : Yes
Format settings, Reference fra : 4 frames
Codec ID                       : V_MPEG4/ISO/AVC
Duration                       : 32 min 39 s
Bit rate                       : 400 kb/s
Width                          : 720 pixels
Height                         : 360 pixels
Display aspect ratio           : 2.000
Frame rate mode                : Constant
Frame rate                     : 24.000 FPS
Color space                    : YUV
Chroma subsampling             : 4:2:0
Bit depth                      : 8 bits
Scan type                      : Progressive
Bits/(Pixel*Frame)             : 0.064
Stream size                    : 93.5 MiB (83%)
Writing library                : x264 core 142 r2479 dd79a61
Default                        : Yes
Forced                         : No
Color range                    : Limited
Color primaries                : BT.709
Transfer characteristics       : BT.709
Matrix coefficients            : BT.709

Audio #1
ID                             : 2
Format                         : AAC LC SBR
Format/Info                    : Advanced Audio Codec Low Complexity with Spectral Band Replication
Commercial name                : HE-AAC
Format settings                : NBC
Codec ID                       : A_AAC-5
Duration                       : 32 min 39 s
Bit rate                       : 40.0 kb/s
Channel(s)                     : 2 channels
Channel layout                 : L R
Sampling rate                  : 48.0 kHz
Frame rate                     : 23.438 FPS (2048 SPF)
Compression mode               : Lossy
Delay relative to video        : -105 ms
Stream size                    : 9.34 MiB (8%)
Language                       : Hindi
Default                        : Yes
Forced                         : No

Audio #2
ID                             : 3
Format                         : AAC LC SBR
Format/Info                    : Advanced Audio Codec Low Complexity with Spectral Band Replication
Commercial name                : HE-AAC
Format settings                : NBC
Codec ID                       : A_AAC-5
Duration                       : 32 min 39 s
Bit rate                       : 40.0 kb/s
Channel(s)                     : 2 channels
Channel layout                 : L R
Sampling rate                  : 48.0 kHz
Frame rate                     : 23.438 FPS (2048 SPF)
Compression mode               : Lossy
Delay relative to video        : -105 ms
Stream size                    : 9.34 MiB (8%)
Language                       : English
Default                        : No
Forced                         : No

Text
ID                             : 4
Format                         : ASS
Codec ID                       : S_TEXT/ASS
Codec ID/Info                  : Advanced Sub Station Alpha
Duration                       : 27 min 52 s
Bit rate                       : 93 b/s
Count of elements              : 370
Compression mode               : Lossless
Stream size                    : 19.1 KiB (0%)
Language                       : English
Default                        : No
Forced                         : No

Screen Shoots


File List:

Robin Robin (2021) 480p WEB-HDRip Dual Audio [Hindi ORG DD 2 0 + English] x264 AAC ESub By Full4Movies mkv
....
113 MB