Hide Your IP Address when Downloading Torrents!
Your IP Address is 182.232.198.186. Location Thailand,
Your Internet Provider can see when you download torrents! Hide your IP Address with a VPN
ETTV warns: You should use VPN to hide your torrenting. Hide IP with VPN

Download "Strays - Artigli (1991)1080p h264 Ac3 Ita Eng Sub Eng-MIRCrew"

Title:
Strays - Artigli (1991)1080p h264 Ac3 Ita Eng Sub Eng-MIRCrew
Category:
Movies > HD 1080p
Language:
Italian
Total Size:
1.66 GB
Info Hash:
f0f7c266dd2d8596c4739be5708a0b373f2e82ce
Added By:
robbyrs
Date Added:
1 week ago
  • Seeds: 19
  • Leechers: 18
  • Uploaded By: robbyrs
Uploaders Description
Strays - Artigli (1991)1080p h264 Ac3 Ita Eng Sub Eng-MIRCrew


NO FOUND ONLY ORIGINAL RELEASE


My release is always in double track audio italian and Original audio
for select it use VLC or dvd player home
not use wmp


 Strays - Artigli (1991)

Quality MIRCrew on HD 1080p da 1,7 gb





 




Prodotto nel lontano 1991, questo film diretto da John Mcperson, dimostra di avere quello che solo alcuni veri film horror hanno: una trama degna di questo nome. Peccato che i cattivi siano dei mici dagli occhioni languidi... durante la visione vi accorgerete con piacere che la storia è scorrevole, i personaggi incredibilmente sensati e le loro azioni dettate dalla necessità che il momento richiede, non improbabili situazioni in cui si fanno improbabili cose del tutto fuori tema

 

Titolo Originale: STRAYS
Regia: John McPherson
Durata: h 1.23
Nazionalità:  USA 1991
Genere: horror



Interpreti: Kathleen Quinlan, Timothy Busfield, Claudia Christian



Paul e Lindsey Jarret vanno a vivere in campagna con la piccola Tessa e, per far questo, chiedono aiuto a Claire, sorella di Lindsey, nonché agente immobiliare. Claire in risposta fa tre cose: trova una casa, omette di citare come è finito il precedente proprietario e ci prova con Paul. Il precedente proprietario è stato sbranato da un branco di gatti tuttora in agguato da qualche parte della casa



A troubled family move to an isolated house, and find and adopt a couple of cats already in residence. These are not the only occupants however...

   










[spoiler]General

Complete name                            : Strays - Artigli (1991)1080p h264 Ac3 Ita Eng Sub Eng-MIRCrew\Strays - Artigli (1991) 1080p h264 Ac3 Ita Eng Sub Eng-MIRCrew.mkv
Format                                   : Matroska
Format version                           : Version 2
File size                                : 1.66 GiB
Duration                                 : 1h 22mn
Overall bit rate                         : 2 883 Kbps
Movie name                               : MIRCrew
Encoded date                             : UTC 2021-11-07 19:13:57
Writing application                      : mkvmerge v5.8.0 ('No Sleep / Pillow') built on Sep  2 2012 15:37:04
Writing library                          : libebml v1.2.3 + libmatroska v1.3.0

Video
ID                                       : 1
Format                                   : AVC
Format/Info                              : Advanced Video Codec
Format profile                           : [email protected]
Format settings, CABAC                   : Yes
Format settings, ReFrames                : 4 frames
Codec ID                                 : V_MPEG4/ISO/AVC
Duration                                 : 1h 22mn
Bit rate                                 : 2 500 Kbps
Width                                    : 1 440 pixels
Height                                   : 1 080 pixels
Display aspect ratio                     : 4:3
Frame rate                               : 23.976 fps
Color space                              : YUV
Chroma subsampling                       : 4:2:0
Bit depth                                : 8 bits
Scan type                                : Progressive
Bits/(Pixel*Frame)                       : 0.067
Stream size                              : 1.41 GiB (85%)
Title                                    : MIRCrew
Writing library                          : x264 core 152 r2851M ba24899
Encoding settings                        : cabac=1 / ref=4 / deblock=1:-1:-1
Language                                 : Italian
Default                                  : Yes
Forced                                   : No

Audio #1
ID                                       : 2
Format                                   : AC-3
Format/Info                              : Audio Coding 3
Mode extension                           : CM (complete main)
Codec ID                                 : A_AC3
Duration                                 : 1h 22mn
Bit rate mode                            : Constant
Bit rate                                 : 192 Kbps
Channel(s)                               : 2 channels
Channel positions                        : Front: L R
Sampling rate                            : 48.0 KHz
Bit depth                                : 16 bits
Compression mode                         : Lossy
Stream size                              : 113 MiB (7%)
Title                                    : Ita Ac3
Language                                 : Italian
Default                                  : Yes
Forced                                   : No

Audio #2
ID                                       : 3
Format                                   : AC-3
Format/Info                              : Audio Coding 3
Mode extension                           : CM (complete main)
Codec ID                                 : A_AC3
Duration                                 : 1h 22mn
Bit rate mode                            : Constant
Bit rate                                 : 192 Kbps
Channel(s)                               : 2 channels
Channel positions                        : Front: L R
Sampling rate                            : 48.0 KHz
Bit depth                                : 16 bits
Compression mode                         : Lossy
Stream size                              : 113 MiB (7%)
Title                                    : Eng Ac3
Language                                 : English
Default                                  : No
Forced                                   : No


[/spoiler]





File List:

Strays - Artigli (1991)1080p h264 Ac3 Ita Eng Sub Eng-MIRCrew eng srt
....
69.42 kB
Strays - Artigli (1991)1080p h264 Ac3 Ita Eng Sub Eng-MIRCrew mkv
....
1.66 GB