Hide Your IP Address when Downloading Torrents!
Your IP Address is 182.232.198.186. Location Thailand,
Your Internet Provider can see when you download torrents! Hide your IP Address with a VPN
ETTV warns: You should use VPN to hide your torrenting. Hide IP with VPN

Download "The Trick (2021) [Hindi Dub] WEB-DLRip Saicord"

Title:
The Trick (2021) [Hindi Dub] WEB-DLRip Saicord
Category:
Movies > SD X264/H264
Language:
Hindi
Total Size:
895 MB
Info Hash:
8c2d830eb45a8efa987d7b5ec81fdcde6210a3bd
Added By:
MelbetCinema7
Date Added:
3 days ago
  • Seeds: 1
  • Leechers: 1
  • Uploaded By: MelbetCinema7
Uploaders Description









Video

ID                             : 1

Format                         : AVC

Format/Info                    : Advanced Video Codec

Format profile                 : [email protected]

Format settings                : CABAC / 1 Ref Frames

Format settings, CABAC         : Yes

Format settings, Reference fra : 1 frame

Codec ID                       : V_MPEG4/ISO/AVC

Duration                       : 1 h 30 min

Bit rate                       : 1 181 kb/s

Width                          : 720 pixels

Height                         : 406 pixels

Display aspect ratio           : 16:9

Frame rate mode                : Constant

Frame rate                     : 25.000 FPS

Color space                    : YUV

Chroma subsampling             : 4:2:0

Bit depth                      : 8 bits

Scan type                      : Progressive

Bits/(Pixel*Frame)             : 0.162

Stream size                    : 767 MiB (86%)

Default                        : Yes

Forced                         : No


Audio

ID                             : 2

Format                         : AAC Main

Format/Info                    : Advanced Audio Codec

Codec ID                       : A_AAC-1

Duration                       : 1 h 30 min

Bit rate                       : 192 kb/s

Channel(s)                     : 2 channels

Channel layout                 : L R

Sampling rate                  : 48.0 kHz

Frame rate                     : 46.875 FPS (1024 SPF)

Compression mode               : Lossy

Stream size                    : 126 MiB (14%)

Language                       : Hindi

Default                        : No

Forced                         : No


File List:

The Trick (2021) [Hindi Dub] 400p WEB-DLRip Saicord mkv
....
895 MB