Hide Your IP Address when Downloading Torrents!
Your IP Address is 182.232.198.186. Location Thailand,
Your Internet Provider can see when you download torrents! Hide your IP Address with a VPN
ETTV warns: You should use VPN to hide your torrenting. Hide IP with VPN

Download "Virus (2019) [Hindi Dub] 720p WEB-DLRip Saicord"

Title:
Virus (2019) [Hindi Dub] 720p WEB-DLRip Saicord
Category:
Movies > Bollywood
Language:
Hindi
Total Size:
2.28 GB
Info Hash:
4b29736a803caf8469b11fa4b1f4e1a160e33b99
Added By:
MelbetCinema7
Date Added:
3 days ago
  • Seeds: 3
  • Leechers: 0
  • Uploaded By: MelbetCinema7
Uploaders Description









Video

ID                             : 1

Format                         : AVC

Format/Info                    : Advanced Video Codec

Format profile                 : [email protected]

Format settings                : CABAC / 1 Ref Frames

Format settings, CABAC         : Yes

Format settings, Reference fra : 1 frame

Codec ID                       : V_MPEG4/ISO/AVC

Duration                       : 2 h 30 min

Bit rate                       : 1 973 kb/s

Width                          : 1 280 pixels

Height                         : 720 pixels

Display aspect ratio           : 16:9

Frame rate mode                : Constant

Frame rate                     : 24.000 FPS

Color space                    : YUV

Chroma subsampling             : 4:2:0

Bit depth                      : 8 bits

Scan type                      : Progressive

Bits/(Pixel*Frame)             : 0.089

Stream size                    : 2.08 GiB (91%)

Default                        : Yes

Forced                         : No


Audio

ID                             : 2

Format                         : AAC Main

Format/Info                    : Advanced Audio Codec

Codec ID                       : A_AAC-1

Duration                       : 2 h 30 min

Bit rate                       : 192 kb/s

Channel(s)                     : 2 channels

Channel layout                 : L R

Sampling rate                  : 48.0 kHz

Frame rate                     : 46.875 FPS (1024 SPF)

Compression mode               : Lossy

Stream size                    : 203 MiB (9%)

Language                       : Hindi

Default                        : No

Forced                         : No


File List:

Virus (2019) [Hindi Dub] 720p WEB-DLRip Saicord mkv
....
2.28 GB