Hide Your IP Address when Downloading Torrents!
Your IP Address is 182.232.198.186. Location Thailand,
Your Internet Provider can see when you download torrents! Hide your IP Address with a VPN
ETTV warns: You should use VPN to hide your torrenting. Hide IP with VPN

Download "Thimmarusu: Assignment Vali (2021) [Bengali Dub] 720p WEB-DLRip Saicord"

Title:
Thimmarusu: Assignment Vali (2021) [Bengali Dub] 720p WEB-DLRip Saicord
Category:
Movies > Bollywood
Language:
Bengali
Total Size:
1.92 GB
Info Hash:
cc4c48b5ebcf174b141167b45722cee950c7ab4a
Added By:
MelbetCinema7
Date Added:
3 days ago
  • Seeds: 1
  • Leechers: 0
  • Uploaded By: MelbetCinema7
Uploaders Description


https://www.imdb.com/title/tt13310936






Video
ID                             : 1
Format                         : AVC
Format/Info                    : Advanced Video Codec
Format profile                 : [email protected]
Format settings                : CABAC / 1 Ref Frames
Format settings, CABAC         : Yes
Format settings, Reference fra : 1 frame
Codec ID                       : V_MPEG4/ISO/AVC
Duration                       : 2 h 6 min
Bit rate                       : 1 971 kb/s
Width                          : 1 280 pixels
Height                         : 720 pixels
Display aspect ratio           : 16:9
Frame rate mode                : Constant
Frame rate                     : 24.000 FPS
Color space                    : YUV
Chroma subsampling             : 4:2:0
Bit depth                      : 8 bits
Scan type                      : Progressive
Bits/(Pixel*Frame)             : 0.089
Stream size                    : 1.74 GiB (91%)
Default                        : Yes
Forced                         : No

Audio
ID                             : 2
Format                         : AAC LC
Format/Info                    : Advanced Audio Codec Low Complexity
Codec ID                       : A_AAC-2
Duration                       : 2 h 6 min
Bit rate                       : 192 kb/s
Channel(s)                     : 2 channels
Channel layout                 : L R
Sampling rate                  : 48.0 kHz
Frame rate                     : 46.875 FPS (1024 SPF)
Compression mode               : Lossy
Stream size                    : 174 MiB (9%)
Language                       : Russian
Default                        : No
Forced                         : No

File List:

Thimmarusu (2021) [Bengali Dub] 720p WEB-DLRip Saicord mkv
....
1.92 GB