Hide Your IP Address when Downloading Torrents!
Your IP Address is 182.232.198.186. Location Thailand,
Your Internet Provider can see when you download torrents! Hide your IP Address with a VPN
ETTV warns: You should use VPN to hide your torrenting. Hide IP with VPN

Download "Schumacher (2021) [Bengali Dub] WEB-DLRip Saicord"

Title:
Schumacher (2021) [Bengali Dub] WEB-DLRip Saicord
Category:
Movies > SD X264/H264
Language:
Bengali
Total Size:
1.12 GB
Info Hash:
84c0f1fb51fc18ea8e06e41f7beccb9343395865
Added By:
MelbetCinema7
Date Added:
1 week ago
  • Seeds: 5
  • Leechers: 0
  • Uploaded By: MelbetCinema7
Uploaders Description









Video

ID                          : 1

Format                      : AVC

Format/Info                 : Advanced Video Codec

Format profile              : [email protected]

Format settings             : CABAC / 1 Ref Frames

Format settings, CABAC      : Yes

Format settings, ReFrames   : 1 frame

Codec ID                    : avc1

Codec ID/Info               : Advanced Video Coding

Duration                    : 1 h 54 min

Bit rate mode               : Constant

Bit rate                    : 1 200 kb/s

Width                       : 720 pixels

Height                      : 406 pixels

Display aspect ratio        : 16:9

Frame rate mode             : Constant

Frame rate                  : 25.000 FPS

Color space                 : YUV

Chroma subsampling          : 4:2:0

Bit depth                   : 8 bits

Scan type                   : Progressive

Bits/(Pixel*Frame)          : 0.164

Stream size                 : 984 MiB (86%)

Codec configuration box     : avcC


Audio

ID                          : 2

Format                      : AAC

Format/Info                 : Advanced Audio Codec

Format profile              : LC

Codec ID                    : mp4a-40-2

Duration                    : 1 h 54 min

Source duration             : 1 h 54 min

Bit rate mode               : Constant

Bit rate                    : 192 kb/s

Channel(s)                  : 2 channels

Channel positions           : Front: L R

Sampling rate               : 48.0 kHz

Frame rate                  : 46.875 FPS (1024 SPF)

Compression mode            : Lossy

Stream size                 : 158 MiB (14%)

Source stream size          : 158 MiB (14%)

Default                     : Yes

Alternate group             : 1

mdhd_Duration               : 6876715


File List:

Schumacher (2021) [Bengali Dub] 400p WEB-DLRip Saicord mp4
....
1.12 GB