Hide Your IP Address when Downloading Torrents!
Your IP Address is 182.232.198.186. Location Thailand,
Your Internet Provider can see when you download torrents! Hide your IP Address with a VPN
ETTV warns: You should use VPN to hide your torrenting. Hide IP with VPN

Download "Pailwaan (2019) [Bengali Dub] 720p WEB-DLRip Saicord"

Title:
Pailwaan (2019) [Bengali Dub] 720p WEB-DLRip Saicord
Category:
Movies > Bollywood
Language:
Bengali
Total Size:
2.52 GB
Info Hash:
b43c52e9ea74c5e182d63487743e772852c9f2f4
Added By:
MelbetCinema7
Date Added:
1 week ago
  • Seeds: 6
  • Leechers: 0
  • Uploaded By: MelbetCinema7
Uploaders Description









Video

ID                             : 1

Format                         : AVC

Format/Info                    : Advanced Video Codec

Format profile                 : [email protected].1

Format settings                : 3 Ref Frames

Format settings, CABAC         : No

Format settings, Reference fra : 3 frames

Codec ID                       : V_MPEG4/ISO/AVC

Duration                       : 2 h 45 min

Bit rate                       : 1 987 kb/s

Width                          : 1 280 pixels

Height                         : 720 pixels

Display aspect ratio           : 16:9

Frame rate mode                : Constant

Frame rate                     : 23.976 (24000/1001) FPS

Color space                    : YUV

Chroma subsampling             : 4:2:0

Bit depth                      : 8 bits

Scan type                      : Progressive

Bits/(Pixel*Frame)             : 0.090

Stream size                    : 2.30 GiB (91%)

Default                        : Yes

Forced                         : No


Audio

ID                             : 2

Format                         : AAC LC

Format/Info                    : Advanced Audio Codec Low Complexity

Codec ID                       : A_AAC-2

Duration                       : 2 h 45 min

Bit rate                       : 188 kb/s

Channel(s)                     : 2 channels

Channel layout                 : L R

Sampling rate                  : 48.0 kHz

Frame rate                     : 46.875 FPS (1024 SPF)

Compression mode               : Lossy

Stream size                    : 222 MiB (9%)

Language                       : Russian

Default                        : No

Forced                         : No


File List:

Pailwaan (2019) [Bengali Dub] 720p WEB-DLRip Saicord mkv
....
2.52 GB