Hide Your IP Address when Downloading Torrents!
Your IP Address is 182.232.198.186. Location Thailand,
Your Internet Provider can see when you download torrents! Hide your IP Address with a VPN
ETTV warns: You should use VPN to hide your torrenting. Hide IP with VPN

Download "Pailwaan (2019) [Bengali Dub] 1080p WEB-DLRip Saicord"

Title:
Pailwaan (2019) [Bengali Dub] 1080p WEB-DLRip Saicord
Category:
Movies > Bollywood
Language:
Bengali
Total Size:
4.82 GB
Info Hash:
efd4b5987b529e9afa99ebd478d6bf14889e1909
Added By:
MelbetCinema7
Date Added:
3 days ago
  • Seeds: 1
  • Leechers: 1
  • Uploaded By: MelbetCinema7
Uploaders Description









Video

ID                             : 1

Format                         : AVC

Format/Info                    : Advanced Video Codec

Format profile                 : Basel[email protected]

Format settings                : 1 Ref Frames

Format settings, CABAC         : No

Format settings, Reference fra : 1 frame

Format settings, GOP           : M=1, N=24

Codec ID                       : avc1

Codec ID/Info                  : Advanced Video Coding

Duration                       : 2 h 45 min

Bit rate                       : 3 971 kb/s

Width                          : 1 920 pixels

Height                         : 1 080 pixels

Display aspect ratio           : 16:9

Frame rate mode                : Constant

Frame rate                     : 23.976 (24000/1001) FPS

Color space                    : YUV

Chroma subsampling             : 4:2:0

Bit depth                      : 8 bits

Scan type                      : Progressive

Bits/(Pixel*Frame)             : 0.080

Stream size                    : 4.60 GiB (95%)

Encoded date                   : UTC 2021-11-21 18:07:48

Tagged date                    : UTC 2021-11-21 18:07:48

Codec configuration box        : avcC


Audio

ID                             : 2

Format                         : AAC LC

Format/Info                    : Advanced Audio Codec Low Complexity

Codec ID                       : mp4a-40-2

Duration                       : 2 h 45 min

Bit rate mode                  : Variable

Bit rate                       : 188 kb/s

Maximum bit rate               : 195 kb/s

Channel(s)                     : 2 channels

Channel layout                 : L R

Sampling rate                  : 48.0 kHz

Frame rate                     : 46.875 FPS (1024 SPF)

Compression mode               : Lossy

Stream size                    : 222 MiB (5%)

Encoded date                   : UTC 2021-11-21 18:07:48

Tagged date                    : UTC 2021-11-21 18:07:48


File List:

Pailwaan (2019) [Bengali Dub] 1080p WEB-DLRip Saicord mp4
....
4.82 GB