Hide Your IP Address when Downloading Torrents!
Your IP Address is 182.232.198.186. Location Thailand,
Your Internet Provider can see when you download torrents! Hide your IP Address with a VPN
ETTV warns: You should use VPN to hide your torrenting. Hide IP with VPN

Download "Dial 100 (2021) [Bengali Dub] 1080p WEB-DLRip Saicord"

Title:
Dial 100 (2021) [Bengali Dub] 1080p WEB-DLRip Saicord
Category:
Movies > Bollywood
Language:
Bengali
Total Size:
2.77 GB
Info Hash:
66680ea6b6a2a2b59ff584ead0bbb717c5f982c6
Added By:
MelbetCinema7
Date Added:
3 days ago
  • Seeds: 4
  • Leechers: 0
  • Uploaded By: MelbetCinema7
Uploaders Description









Video

ID                             : 1

Format                         : AVC

Format/Info                    : Advanced Video Codec

Format profile                 : Bas[email protected]

Format settings                : 1 Ref Frames

Format settings, CABAC         : No

Format settings, Reference fra : 1 frame

Format settings, GOP           : M=1, N=24

Codec ID                       : avc1

Codec ID/Info                  : Advanced Video Coding

Duration                       : 1 h 46 min

Bit rate                       : 3 544 kb/s

Width                          : 1 920 pixels

Height                         : 1 080 pixels

Display aspect ratio           : 16:9

Frame rate mode                : Constant

Frame rate                     : 25.000 FPS

Color space                    : YUV

Chroma subsampling             : 4:2:0

Bit depth                      : 8 bits

Scan type                      : Progressive

Bits/(Pixel*Frame)             : 0.068

Stream size                    : 2.63 GiB (95%)

Encoded date                   : UTC 2021-11-21 18:01:12

Tagged date                    : UTC 2021-11-21 18:01:12

Codec configuration box        : avcC


Audio

ID                             : 2

Format                         : AAC LC

Format/Info                    : Advanced Audio Codec Low Complexity

Codec ID                       : mp4a-40-2

Duration                       : 1 h 46 min

Bit rate mode                  : Variable

Bit rate                       : 187 kb/s

Maximum bit rate               : 195 kb/s

Channel(s)                     : 2 channels

Channel layout                 : L R

Sampling rate                  : 48.0 kHz

Frame rate                     : 46.875 FPS (1024 SPF)

Compression mode               : Lossy

Stream size                    : 142 MiB (5%)

Encoded date                   : UTC 2021-11-21 18:01:12

Tagged date                    : UTC 2021-11-21 18:01:12


File List:

Dial 100 (2021) [Bengali Dub] 1080p WEB-DLRip Saicord mp4
....
2.77 GB