Hide Your IP Address when Downloading Torrents!
Your IP Address is 182.232.198.186. Location Thailand,
Your Internet Provider can see when you download torrents! Hide your IP Address with a VPN
ETTV warns: You should use VPN to hide your torrenting. Hide IP with VPN

Download "Acapulco 2021 S01E09 Il Periodo Piu Bello Dell Anno ITA-ENG 2160p ATVP WEB-DL DDP5 1 Atmos DV HEVC-gattopollo mkv"

Title:
Acapulco 2021 S01E09 Il Periodo Piu Bello Dell Anno ITA-ENG 2160p ATVP WEB-DL DDP5 1 Atmos DV HEVC-gattopollo mkv
Category:
TV > Documentary
Language:
Italian
Total Size:
5.61 GB
Info Hash:
5d8c621b247f609a99263e3c2b226ac7fa3b7f36
Added By:
ppb1
Date Added:
1 week ago
  • Seeds: 1
  • Leechers: 1
  • Uploaded By: ppb1
Uploaders Description
.:: TITOLO ::.


Acapulco.2021.S01.ITA-ENG.2160p.ATVP.WEB-DL.DDP5.1.Atmos.DV.HEVC-gattopollo




.:: INFO SERIE ::.



Titolo Originale: Acapulco
Anno: 2021
Stagione: 1
Episodi: 10
Durata: 60 min (episodio)
Genere: commedia
IMDb

.:: TRAMA ::.

Il sogno del ventenne Máximo Gallardo diventa realtà quando ottiene un lavoro come cabana boy nel resort più alla moda di Acapulco. Ben presto si rende conto che il lavoro è molto più complicato di quanto avesse mai immaginato e che, per avere successo, deve imparare a gestire contemporaneamente una clientela esigente, un mentore volubile e una vita familiare complicata, senza perdere la strada cercando scorciatoie o lasciandosi andare alle tentazioni.


.:: SCREENSHOT ::.

 



.:: INFO TECNICHE ::.

Sorgente Video :  Acapulco.2021.S01E01.Pilot.DV.2160p.ATVP.WEB-DL.DDPA5.1.H.265-FLUX
Sorgente Audio :  ATVP
Risoluzione: 3840X1920, H.265 @ 24.7 Mb/s
Audio 1: ITA E-AC3 JOC 6ch @768kb/s
Audio 2: ENG E-AC3 JOC 6ch @768kb/s
Sottotitoli: ITA FORCED, ITA REGULAR, ITA SDH,ENG FORCED, ENG REGULAR, ENG SDH


.:: MEDIAINFO ::.



General
Unique ID                                : 50899114677523146849643876807419500225 (0x264AD01ADF1065F6E1EC094A8E3E16C1)
Complete name                            : Acapulco.2021.S01E01.Puntata.Pilota.ITA-ENG.2160p.ATVP.WEB-DL.DDP5.1.Atmos.DV.HEVC-gattopollo.mkv
Format                                   : Matroska
Format version                           : Version 4
File size                                : 6.61 GiB
Duration                                 : 36 min 7 s
Overall bit rate                         : 26.2 Mb/s
Movie name                               : Acapulco - S01E01 - Pilot
Encoded date                             : UTC 2021-10-08 17:18:09
Writing application                      : mkvmerge v61.0.0 ('So') 64-bit
Writing library                          : libebml v1.4.2 + libmatroska v1.6.4
IMDB                                     : tt13567344t
TMDB                                     : tv/133727

Video
ID                                       : 1
Format                                   : HEVC
Format/Info                              : High Efficiency Video Coding
Format profile                           : Main [email protected]@High
HDR format                               : Dolby Vision, Version 1.0, dvhe.05.06, BL+RPU
Codec ID                                 : V_MPEGH/ISO/HEVC
Duration                                 : 36 min 7 s
Bit rate                                 : 24.7 Mb/s
Width                                    : 3 840 pixels
Height                                   : 2 160 pixels
Display aspect ratio                     : 16:9
Frame rate mode                          : Constant
Frame rate                               : 23.976 (24000/1001) FPS
Color space                              : YUV
Chroma subsampling                       : 4:2:0
Bit depth                                : 10 bits
Bits/(Pixel*Frame)                       : 0.124
Stream size                              : 6.22 GiB (94%)
Language                                 : English
Default                                  : Yes
Forced                                   : No

Audio #1
ID                                       : 2
Format                                   : E-AC-3 JOC
Format/Info                              : Enhanced AC-3 with Joint Object Coding
Commercial name                          : Dolby Digital Plus with Dolby Atmos
Codec ID                                 : A_EAC3
Duration                                 : 36 min 7 s
Bit rate mode                            : Constant
Bit rate                                 : 768 kb/s
Channel(s)                               : 6 channels
Channel layout                           : L R C LFE Ls Rs
Sampling rate                            : 48.0 kHz
Frame rate                               : 31.250 FPS (1536 SPF)
Compression mode                         : Lossy
Stream size                              : 198 MiB (3%)
Title                                    : Italian
Language                                 : Italian
Service kind                             : Complete Main
Default                                  : Yes
Forced                                   : No
Complexity index                         : 16
Number of dynamic objects                : 15
Bed channel count                        : 1 channel
Bed channel configuration                : LFE

Audio #2
ID                                       : 3
Format                                   : E-AC-3 JOC
Format/Info                              : Enhanced AC-3 with Joint Object Coding
Commercial name                          : Dolby Digital Plus with Dolby Atmos
Codec ID                                 : A_EAC3
Duration                                 : 36 min 7 s
Bit rate mode                            : Constant
Bit rate                                 : 768 kb/s
Channel(s)                               : 6 channels
Channel layout                           : L R C LFE Ls Rs
Sampling rate                            : 48.0 kHz
Frame rate                               : 31.250 FPS (1536 SPF)
Compression mode                         : Lossy
Stream size                              : 198 MiB (3%)
Title                                    : English
Language                                 : English
Service kind                             : Complete Main
Default                                  : No
Forced                                   : No
Complexity index                         : 16
Number of dynamic objects                : 15
Bed channel count                        : 1 channel
Bed channel configuration                : LFE

Text #1
ID                                       : 4
Format                                   : UTF-8
Codec ID                                 : S_TEXT/UTF8
Codec ID/Info                            : UTF-8 Plain Text
Duration                                 : 33 min 24 s
Bit rate                                 : 26 b/s
Count of elements                        : 179
Stream size                              : 6.40 KiB (0%)
Title                                    : Italian [Forced]
Language                                 : Italian
Default                                  : Yes
Forced                                   : Yes

Text #2
ID                                       : 5
Format                                   : UTF-8
Codec ID                                 : S_TEXT/UTF8
Codec ID/Info                            : UTF-8 Plain Text
Duration                                 : 35 min 39 s
Bit rate                                 : 85 b/s
Count of elements                        : 590
Stream size                              : 22.3 KiB (0%)
Title                                    : Italian
Language                                 : Italian
Default                                  : No
Forced                                   : No

Text #3
ID                                       : 6
Format                                   : UTF-8
Codec ID                                 : S_TEXT/UTF8
Codec ID/Info                            : UTF-8 Plain Text
Duration                                 : 34 min 41 s
Bit rate                                 : 92 b/s
Count of elements                        : 603
Stream size                              : 23.5 KiB (0%)
Title                                    : Italian [SDH]
Language                                 : Italian
Default                                  : No
Forced                                   : No

Text #4
ID                                       : 7
Format                                   : UTF-8
Codec ID                                 : S_TEXT/UTF8
Codec ID/Info                            : UTF-8 Plain Text
Duration                                 : 30 min 22 s
Bit rate                                 : 26 b/s
Count of elements                        : 179
Stream size                              : 5.88 KiB (0%)
Title                                    : English [Forced]
Language                                 : English
Default                                  : No
Forced                                   : Yes

Text #5
ID                                       : 8
Format                                   : UTF-8
Codec ID                                 : S_TEXT/UTF8
Codec ID/Info                            : UTF-8 Plain Text
Duration                                 : 34 min 26 s
Bit rate                                 : 80 b/s
Count of elements                        : 607
Stream size                              : 20.2 KiB (0%)
Title                                    : English
Language                                 : English
Default                                  : No
Forced                                   : No

Text #6
ID                                       : 9
Format                                   : UTF-8
Codec ID                                 : S_TEXT/UTF8
Codec ID/Info                            : UTF-8 Plain Text
Duration                                 : 34 min 34 s
Bit rate                                 : 86 b/s
Count of elements                        : 638
Stream size                              : 22.0 KiB (0%)
Title                                    : English [SDH]
Language                                 : English
Default                                  : No
Forced                                   : No









.:: NOTE ::.


ATTENZIONE RELEASE DOLBY VISION SINGLE LAYER, NECESSARIA CONFIGURAZIONE HARDWARE SPECIFICA:
Release testata su  Android Plex Nvidia Shield Pro 2019 e M9702 v3 "Chinoppo".


File List:

Acapulco 2021 S01E09 Il Periodo Piu Bello Dell Anno ITA-ENG 2160p ATVP WEB-DL DDP5 1 Atmos DV HEVC-gattopollo mkv
....
5.61 GB