Hide Your IP Address when Downloading Torrents!
Your IP Address is 182.232.198.186. Location Thailand,
Your Internet Provider can see when you download torrents! Hide your IP Address with a VPN
ETTV warns: You should use VPN to hide your torrenting. Hide IP with VPN

Download "Kiki's Delivery Service [1989] 1080p BDRip x265 DTS-HD MA 2 0 Kira [SEV]"

Title:
Kiki's Delivery Service [1989] 1080p BDRip x265 DTS-HD MA 2 0 Kira [SEV]
Category:
Anime > Dubbed/Subbed
Language:
Japanese
Total Size:
16.99 GB
Info Hash:
5d264ca7b35a399717c789f5af2c76662b3ed4d1
Added By:
D0ct0rLew
Date Added:
2 weeks ago
  • Seeds: 38
  • Leechers: 15
  • Uploaded By: D0ct0rLew
Uploaders Description



Screenshot's
Source vs Encode :-
-----------
-----------
-----------
-----------
-----------


Media Information
General
Unique ID                   : 254562782828608532782528174933144414591 (0xBF830234C39BC2DADB159509DD4EA97F)
Complete name               : Kiki's Delivery Service [1989] 1080p BDRip x265 DTS-HD MA 2.0 Kira [SEV].mkv
Format                      : Matroska
Format version              : Version 4
File size                   : 17.0 GiB
Duration                    : 1 h 43 min
Overall bit rate mode       : Variable
Overall bit rate            : 23.6 Mb/s
Movie name                  : | 魔女の宅急便 (Majo no Takkyūbin) [1989] | Kiki's Delivery Service [1989] | 1080p | BDRip | x265 | DTS:HD MA 2.0 @ 2124 Kbps | Kira [SEV] |
Encoded date                : UTC 2021-12-30 02:31:41
Writing application         : mkvmerge v61.0.0 ('So') 64-bit
Writing library             : libebml v1.4.2 + libmatroska v1.6.4
Attachments                 : CandelaBoldItalic.otf / GoudySansStd-BoldItalic.otf / MendozaRomanITCStd-MediumIt.otf / Profile-Bold.otf / 9SALERNO.TTF / CandelaBold.otf

Video
ID                          : 1
Format                      : HEVC
Format/Info                 : High Efficiency Video Coding
Format profile              : Main [email protected]@Main
Codec ID                    : V_MPEGH/ISO/HEVC
Duration                    : 1 h 43 min
Bit rate                    : 21.2 Mb/s
Width                       : 1 920 pixels
Height                      : 1 080 pixels
Display aspect ratio        : 16:9
Frame rate mode             : Constant
Frame rate                  : 23.976 (24000/1001) FPS
Color space                 : YUV
Chroma subsampling          : 4:2:0
Bit depth                   : 10 bits
Bits/(Pixel*Frame)          : 0.427
Stream size                 : 15.3 GiB (90%)
Title                       : | 魔女の宅急便 (Majo no Takkyūbin) [1989] | Kiki's Delivery Service [1989] | 1080p | BDRip | x265 | DTS:HD MA 2.0 @ 2124 Kbps | Kira [SEV] |
Writing library             : x265 3.5+20-17839cc0d:[Windows][MSVC 1930][64 bit] 10bit
Encoding settings           : cpuid=1111039 / frame-threads=3 / numa-pools=12 / wpp / no-pmode / no-pme / no-psnr / no-ssim / log-level=2 / input-csp=1 / input-res=1920x1080 / interlace=0 / total-frames=148236 / level-idc=0 / high-tier=1 / uhd-bd=0 / ref=5 / no-allow-non-conformance / no-repeat-headers / annexb / no-aud / no-eob / no-eos / no-hrd / info / hash=0 / no-temporal-layers / open-gop / min-keyint=23 / keyint=250 / gop-lookahead=0 / bframes=16 / b-adapt=2 / b-pyramid / bframe-bias=0 / rc-lookahead=100 / lookahead-slices=0 / scenecut=40 / no-hist-scenecut / radl=0 / no-splice / no-intra-refresh / ctu=64 / min-cu-size=8 / no-rect / no-amp / max-tu-size=32 / tu-inter-depth=4 / tu-intra-depth=4 / limit-tu=4 / rdoq-level=2 / dynamic-rd=0.00 / no-ssim-rd / signhide / no-tskip / nr-intra=0 / nr-inter=0 / no-constrained-intra / no-strong-intra-smoothing / max-merge=4 / limit-refs=1 / limit-modes / me=3 / subme=7 / merange=92 / temporal-mvp / no-frame-dup / no-hme / weightp / weightb / no-analyze-src-pics / deblock=0:0 / no-sao / no-sao-non-deblock / rd=6 / selective-sao=0 / no-early-skip / rskip / no-fast-intra / no-tskip-fast / no-cu-lossless / b-intra / no-splitrd-skip / rdpenalty=0 / psy-rd=1.50 / psy-rdoq=1.00 / no-rd-refine / no-lossless / cbqpoffs=0 / crqpoffs=0 / rc=crf / crf=16.7 / qcomp=0.60 / qpstep=4 / stats-write=0 / stats-read=0 / ipratio=1.40 / pbratio=1.30 / aq-mode=3 / aq-strength=1.10 / cutree / zone-count=0 / no-strict-cbr / qg-size=32 / no-rc-grain / qpmax=69 / qpmin=0 / no-const-vbv / sar=0 / overscan=0 / videoformat=5 / range=0 / colorprim=2 / transfer=2 / colormatrix=2 / chromaloc=0 / display-window=0 / cll=0,0 / min-luma=0 / max-luma=1023 / log2-max-poc-lsb=8 / vui-timing-info / vui-hrd-info / slices=1 / no-opt-qp-pps / no-opt-ref-list-length-pps / no-multi-pass-opt-rps / scenecut-bias=0.05 / hist-threshold=0.03 / no-opt-cu-delta-qp / no-aq-motion / no-hdr10 / no-hdr10-opt / no-dhdr10-opt / no-idr-recovery-sei / analysis-reuse-level=0 / analysis-save-reuse-level=0 / analysis-load-reuse-level=0 / scale-factor=0 / refine-intra=0 / refine-inter=0 / refine-mv=1 / refine-ctu-distortion=0 / no-limit-sao / ctu-info=0 / no-lowpass-dct / refine-analysis-type=0 / copy-pic=1 / max-ausize-factor=1.0 / no-dynamic-refine / no-single-sei / no-hevc-aq / no-svt / no-field / qp-adaptation-range=1.00 / scenecut-aware-qp=0conformance-window-offsets / right=0 / bottom=0 / decoder-max-rate=0 / no-vbv-live-multi-pass
Language                    : Japanese
Default                     : Yes
Forced                      : No

Audio #1
ID                          : 2
ID in the original source m : 4352 (0x1100)
Format                      : DTS XLL
Format/Info                 : Digital Theater Systems
Commercial name             : DTS-HD Master Audio
Codec ID                    : A_DTS
Duration                    : 1 h 43 min
Bit rate mode               : Variable
Bit rate                    : 2 124 kb/s
Channel(s)                  : 2 channels
Sampling rate               : 48.0 kHz
Frame rate                  : 93.750 FPS (512 SPF)
Bit depth                   : 24 bits
Compression mode            : Lossless
Stream size                 : 1.53 GiB (9%)
Title                       : Japanese BD DTS:HD MA 2.0 @ 2124 Kbps
Language                    : Japanese
Default                     : Yes
Forced                      : No
Original source medium      : Blu-ray

Audio #2
ID                          : 3
ID in the original source m : 4353 (0x1101)
Format                      : AC-3
Format/Info                 : Audio Coding 3
Commercial name             : Dolby Digital
Format settings             : Dolby Surround
Codec ID                    : A_AC3
Duration                    : 1 h 43 min
Bit rate mode               : Constant
Bit rate                    : 192 kb/s
Channel(s)                  : 2 channels
Channel layout              : L R
Sampling rate               : 48.0 kHz
Frame rate                  : 31.250 FPS (1536 SPF)
Compression mode            : Lossy
Stream size                 : 142 MiB (1%)
Title                       : English BD AC-3 DD 2.0
Language                    : English
Service kind                : Complete Main
Default                     : No
Forced                      : No
Original source medium      : Blu-ray

Text #1
ID                          : 4
ID in the original source m : 4608 (0x1200)
Format                      : PGS
Codec ID                    : S_HDMV/PGS
Codec ID/Info               : Picture based subtitle format used on BDs/HD-DVDs
Duration                    : 1 h 42 min
Bit rate                    : 25.9 kb/s
Count of elements           : 2652
Stream size                 : 19.0 MiB (0%)
Title                       : Japanese BD PGS Sub
Language                    : Japanese
Default                     : Yes
Forced                      : No
Original source medium      : Blu-ray

Text #2
ID                          : 5
Format                      : ASS
Codec ID                    : S_TEXT/ASS
Codec ID/Info               : Advanced Sub Station Alpha
Duration                    : 1 h 42 min
Bit rate                    : 77 b/s
Count of elements           : 1218
Compression mode            : Lossless
Stream size                 : 58.4 KiB (0%)
Title                       : English ASS | THORA
Language                    : English
Default                     : No
Forced                      : No

Text #3
ID                          : 6
ID in the original source m : 4609 (0x1201)
Format                      : PGS
Codec ID                    : S_HDMV/PGS
Codec ID/Info               : Picture based subtitle format used on BDs/HD-DVDs
Duration                    : 1 h 42 min
Bit rate                    : 34.5 kb/s
Count of elements           : 1918
Stream size                 : 25.4 MiB (0%)
Title                       : English BD PGS Sub
Language                    : English
Default                     : No
Forced                      : No
Original source medium      : Blu-ray

Menu
00:00:00.000                : ja:Chapter 01
00:00:13.013                : ja:Chapter 02
00:05:34.500                : ja:Chapter 03
00:07:47.633                : ja:Chapter 04
00:10:33.799                : ja:Chapter 05
00:15:29.303                : ja:Chapter 06
00:20:49.957                : ja:Chapter 07
00:26:06.356                : ja:Chapter 08
00:30:55.436                : ja:Chapter 09
00:36:23.139                : ja:Chapter 10
00:42:02.645                : ja:Chapter 11
00:47:19.753                : ja:Chapter 12
00:52:53.295                : ja:Chapter 13
00:57:45.795                : ja:Chapter 14
01:01:39.153                : ja:Chapter 15
01:07:19.452                : ja:Chapter 16
01:11:42.715                : ja:Chapter 17
01:16:04.393                : ja:Chapter 18
01:20:16.436                : ja:Chapter 19
01:24:39.157                : ja:Chapter 20
01:29:10.720                : ja:Chapter 21
01:34:34.418                : ja:Chapter 22
01:39:47.147                : ja:Chapter 23
01:42:18.132                : ja:Chapter 24
01:43:01.675                : ja:Chapter 25


Source Information
Hayao Miyazaki Box Set - 魔女の宅急便.iso (43.6 GB)
General
Unique ID                   : 256793075916045732573672448491176980611 (0xC1308C25255AD8EE5E337B8B6FADF083)
Complete name               : Kiki's Delivery Service REMUX.mkv
Format                      : Matroska
Format version              : Version 2
File size                   : 30.3 GiB
Duration                    : 1 h 43 min
Overall bit rate mode       : Variable
Overall bit rate            : 42.2 Mb/s
Encoded date                : UTC 2021-12-19 02:02:38
Writing application         : MakeMKV v1.15.0 win(x64-release)
Writing library             : libmakemkv v1.15.0 (1.3.5/1.4.7) win(x64-release)

Video
ID                          : 1
ID in the original source m : 4113 (0x1011)
Format                      : AVC
Format/Info                 : Advanced Video Codec
Format profile              : [email protected]
Format settings             : CABAC / 2 Ref Frames
Format settings, CABAC      : Yes
Format settings, Reference  : 2 frames
Format settings, GOP        : M=3, N=24
Codec ID                    : V_MPEG4/ISO/AVC
Duration                    : 1 h 43 min
Bit rate                    : 38.9 Mb/s
Width                       : 1 920 pixels
Height                      : 1 080 pixels
Display aspect ratio        : 16:9
Frame rate mode             : Constant
Frame rate                  : 23.976 (24000/1001) FPS
Color space                 : YUV
Chroma subsampling          : 4:2:0
Bit depth                   : 8 bits
Scan type                   : Progressive
Bits/(Pixel*Frame)          : 0.783
Stream size                 : 28.0 GiB (92%)
Language                    : English
Default                     : No
Forced                      : No
Original source medium      : Blu-ray

Audio #1
ID                          : 2
ID in the original source m : 4352 (0x1100)
Format                      : DTS XLL
Format/Info                 : Digital Theater Systems
Commercial name             : DTS-HD Master Audio
Codec ID                    : A_DTS
Duration                    : 1 h 43 min
Bit rate mode               : Variable
Bit rate                    : 2 124 kb/s
Channel(s)                  : 2 channels
Sampling rate               : 48.0 kHz
Frame rate                  : 93.750 FPS (512 SPF)
Bit depth                   : 24 bits
Compression mode            : Lossless
Stream size                 : 1.53 GiB (5%)
Title                       : Stereo
Language                    : Japanese
Default                     : Yes
Forced                      : No
Original source medium      : Blu-ray

Audio #2
ID                          : 3
ID in the original source m : 4353 (0x1101)
Format                      : AC-3
Format/Info                 : Audio Coding 3
Commercial name             : Dolby Digital
Format settings             : Dolby Surround
Codec ID                    : A_AC3
Duration                    : 1 h 43 min
Bit rate mode               : Constant
Bit rate                    : 192 kb/s
Channel(s)                  : 2 channels
Channel layout              : L R
Sampling rate               : 48.0 kHz
Frame rate                  : 31.250 FPS (1536 SPF)
Compression mode            : Lossy
Stream size                 : 142 MiB (0%)
Title                       : Stereo
Language                    : English
Service kind                : Complete Main
Default                     : No
Forced                      : No
Original source medium      : Blu-ray

Audio #3
ID                          : 4
ID in the original source m : 4354 (0x1102)
Format                      : AC-3
Format/Info                 : Audio Coding 3
Commercial name             : Dolby Digital
Format settings             : Dolby Surround
Codec ID                    : A_AC3
Duration                    : 1 h 43 min
Bit rate mode               : Constant
Bit rate                    : 192 kb/s
Channel(s)                  : 2 channels
Channel layout              : L R
Sampling rate               : 48.0 kHz
Frame rate                  : 31.250 FPS (1536 SPF)
Compression mode            : Lossy
Stream size                 : 142 MiB (0%)
Title                       : Stereo
Language                    : French
Service kind                : Complete Main
Default                     : No
Forced                      : No
Original source medium      : Blu-ray

Audio #4
ID                          : 5
ID in the original source m : 4355 (0x1103)
Format                      : AC-3
Format/Info                 : Audio Coding 3
Commercial name             : Dolby Digital
Format settings             : Dolby Surround
Codec ID                    : A_AC3
Duration                    : 1 h 43 min
Bit rate mode               : Constant
Bit rate                    : 192 kb/s
Channel(s)                  : 2 channels
Channel layout              : L R
Sampling rate               : 48.0 kHz
Frame rate                  : 31.250 FPS (1536 SPF)
Compression mode            : Lossy
Stream size                 : 142 MiB (0%)
Title                       : Stereo
Language                    : German
Service kind                : Complete Main
Default                     : No
Forced                      : No
Original source medium      : Blu-ray

Audio #5
ID                          : 6
ID in the original source m : 4356 (0x1104)
Format                      : AC-3
Format/Info                 : Audio Coding 3
Commercial name             : Dolby Digital
Codec ID                    : A_AC3
Duration                    : 1 h 43 min
Bit rate mode               : Constant
Bit rate                    : 192 kb/s
Channel(s)                  : 2 channels
Channel layout              : L R
Sampling rate               : 48.0 kHz
Frame rate                  : 31.250 FPS (1536 SPF)
Compression mode            : Lossy
Stream size                 : 142 MiB (0%)
Title                       : Stereo
Language                    : Chinese
Service kind                : Complete Main
Default                     : No
Forced                      : No
Original source medium      : Blu-ray

Audio #6
ID                          : 7
ID in the original source m : 4357 (0x1105)
Format                      : AC-3
Format/Info                 : Audio Coding 3
Commercial name             : Dolby Digital
Codec ID                    : A_AC3
Duration                    : 1 h 43 min
Bit rate mode               : Constant
Bit rate                    : 192 kb/s
Channel(s)                  : 2 channels
Channel layout              : L R
Sampling rate               : 48.0 kHz
Frame rate                  : 31.250 FPS (1536 SPF)
Compression mode            : Lossy
Stream size                 : 142 MiB (0%)
Title                       : Stereo
Language                    : Chinese
Service kind                : Complete Main
Default                     : No
Forced                      : No
Original source medium      : Blu-ray

Text #1
ID                          : 8
ID in the original source m : 4608 (0x1200)
Format                      : PGS
Codec ID                    : S_HDMV/PGS
Codec ID/Info               : Picture based subtitle format used on BDs/HD-DVDs
Duration                    : 1 h 42 min
Bit rate                    : 25.9 kb/s
Count of elements           : 2652
Stream size                 : 19.0 MiB (0%)
Language                    : Japanese
Default                     : Yes
Forced                      : No
Original source medium      : Blu-ray

Text #2
ID                          : 10
ID in the original source m : 4609 (0x1201)
Format                      : PGS
Codec ID                    : S_HDMV/PGS
Codec ID/Info               : Picture based subtitle format used on BDs/HD-DVDs
Duration                    : 1 h 42 min
Bit rate                    : 34.5 kb/s
Count of elements           : 1918
Stream size                 : 25.4 MiB (0%)
Language                    : English
Default                     : No
Forced                      : No
Original source medium      : Blu-ray

Text #3
ID                          : 12
ID in the original source m : 4610 (0x1202)
Format                      : PGS
Codec ID                    : S_HDMV/PGS
Codec ID/Info               : Picture based subtitle format used on BDs/HD-DVDs
Duration                    : 1 h 42 min
Bit rate                    : 31.4 kb/s
Count of elements           : 2098
Stream size                 : 23.1 MiB (0%)
Language                    : French
Default                     : No
Forced                      : No
Original source medium      : Blu-ray

Text #4
ID                          : 14
ID in the original source m : 4611 (0x1203)
Format                      : PGS
Codec ID                    : S_HDMV/PGS
Codec ID/Info               : Picture based subtitle format used on BDs/HD-DVDs
Duration                    : 1 h 42 min
Bit rate                    : 28.5 kb/s
Count of elements           : 2348
Stream size                 : 21.0 MiB (0%)
Language                    : Chinese
Default                     : No
Forced                      : No
Original source medium      : Blu-ray

Text #5
ID                          : 16
ID in the original source m : 4612 (0x1204)
Format                      : PGS
Codec ID                    : S_HDMV/PGS
Codec ID/Info               : Picture based subtitle format used on BDs/HD-DVDs
Duration                    : 1 h 42 min
Bit rate                    : 28.3 kb/s
Count of elements           : 2352
Stream size                 : 20.8 MiB (0%)
Language                    : Chinese
Default                     : No
Forced                      : No
Original source medium      : Blu-ray

Menu
00:00:00.000                : en:Chapter 01
00:00:13.013                : en:Chapter 02
00:05:34.500                : en:Chapter 03
00:07:47.633                : en:Chapter 04
00:10:33.799                : en:Chapter 05
00:15:29.303                : en:Chapter 06
00:20:49.957                : en:Chapter 07
00:26:06.356                : en:Chapter 08
00:30:55.436                : en:Chapter 09
00:36:23.139                : en:Chapter 10
00:42:02.645                : en:Chapter 11
00:47:19.753                : en:Chapter 12
00:52:53.295                : en:Chapter 13
00:57:45.795                : en:Chapter 14
01:01:39.153                : en:Chapter 15
01:07:19.452                : en:Chapter 16
01:11:42.715                : en:Chapter 17
01:16:04.393                : en:Chapter 18
01:20:16.436                : en:Chapter 19
01:24:39.157                : en:Chapter 20
01:29:10.720                : en:Chapter 21
01:34:34.418                : en:Chapter 22
01:39:47.147                : en:Chapter 23
01:42:18.132                : en:Chapter 24
01:43:01.675                : en:Chapter 25


We have no issue with individuals posting or re-uploading our torrents on a platform we aren't on. However, if this is something you'd like to do, please do so in a 'as-is' format. We ask that you do not create a new torrent, include all descriptions you see above including the SEV logo, tags, notes and screenshots. If you'd like to become a permanent poster on a website we don't post to, feel free to get in contact with a Sublime Encoded Video member.

We are recruiting/training new members for SEV & seedbox providers as well as people to help out with subtitles.
As you already know, we deliver quality, so you know the standard.
If you're interested, feel free to contact any of the team members.



File List:

Contact SEV txt
....
1.04 kB
Kiki's Delivery Service [1989] 1080p BDRip x265 DTS-HD MA 2 0 Kira [SEV] mkv
....
16.99 GB