Hide Your IP Address when Downloading Torrents!
Your IP Address is 182.232.198.186. Location Thailand,
Your Internet Provider can see when you download torrents! Hide your IP Address with a VPN
ETTV warns: You should use VPN to hide your torrenting. Hide IP with VPN

Download "Home Sweet Home Alone (2021) [Bengali Dub] 720p WEB-DLRip Saicord"

Title:
Home Sweet Home Alone (2021) [Bengali Dub] 720p WEB-DLRip Saicord
Category:
Movies > HD 720p
Language:
Bengali
Total Size:
1.43 GB
Info Hash:
7f395fd4e4cf39c011450216a93b2641d1874996
Added By:
MelbetCinema7
Date Added:
1 week ago
  • Seeds: 8
  • Leechers: 0
  • Uploaded By: MelbetCinema7
Uploaders Description









Video

ID                             : 1

Format                         : AVC

Format/Info                    : Advanced Video Codec

Format profile                 : [email protected]

Format settings                : CABAC / 3 Ref Frames

Format settings, CABAC         : Yes

Format settings, Reference fra : 3 frames

Codec ID                       : V_MPEG4/ISO/AVC

Duration                       : 1 h 35 min

Bit rate                       : 1 965 kb/s

Width                          : 1 280 pixels

Height                         : 720 pixels

Display aspect ratio           : 16:9

Frame rate mode                : Constant

Frame rate                     : 24.000 FPS

Color space                    : YUV

Chroma subsampling             : 4:2:0

Bit depth                      : 8 bits

Scan type                      : Progressive

Bits/(Pixel*Frame)             : 0.089

Stream size                    : 1.30 GiB (91%)

Default                        : Yes

Forced                         : No


Audio

ID                             : 2

Format                         : AAC Main

Format/Info                    : Advanced Audio Codec

Codec ID                       : A_AAC-1

Duration                       : 1 h 35 min

Bit rate                       : 192 kb/s

Channel(s)                     : 2 channels

Channel layout                 : L R

Sampling rate                  : 48.0 kHz

Frame rate                     : 46.875 FPS (1024 SPF)

Compression mode               : Lossy

Stream size                    : 131 MiB (9%)

Language                       : Bengali

Default                        : No

Forced                         : No


File List:

Home Sweet Home Alone (2021) [Bengali Dub] 720p WEB-DLRip Saicord mkv
....
1.43 GB