Hide Your IP Address when Downloading Torrents!
Your IP Address is 182.232.198.186. Location Thailand,
Your Internet Provider can see when you download torrents! Hide your IP Address with a VPN
ETTV warns: You should use VPN to hide your torrenting. Hide IP with VPN

Download "Rangasthalam (2018) [Hindi Dub] WEB-DLRip Saicord"

Title:
Rangasthalam (2018) [Hindi Dub] WEB-DLRip Saicord
Category:
Movies > SD X264/H264
Language:
Hindi
Total Size:
1.69 GB
Info Hash:
54f169d483e657158fda66f6e7d1e0be1b6ab235
Added By:
MelbetCinema7
Date Added:
1 week ago
  • Seeds: 17
  • Leechers: 17
  • Uploaded By: MelbetCinema7
Uploaders Description









Video

ID                                       : 1

Format                                   : AVC

Format/Info                              : Advanced Video Codec

Format profile                           : [email protected]

Format settings                          : 3 Ref Frames

Format settings, CABAC                   : No

Format settings, Reference frames        : 3 frames

Codec ID                                 : V_MPEG4/ISO/AVC

Duration                                 : 2 h 55 min

Bit rate                                 : 1 193 kb/s

Width                                    : 720 pixels

Height                                   : 408 pixels

Display aspect ratio                     : 16:9

Frame rate mode                          : Variable

Frame rate                               : 24.000 FPS

Color space                              : YUV

Chroma subsampling                       : 4:2:0

Bit depth                                : 8 bits

Scan type                                : Progressive

Bits/(Pixel*Frame)                       : 0.169

Stream size                              : 1.46 GiB (86%)

Default                                  : Yes

Forced                                   : No


Audio

ID                                       : 2

Format                                   : AAC LC

Format/Info                              : Advanced Audio Codec Low Complexity

Codec ID                                 : A_AAC-2

Duration                                 : 2 h 55 min

Bit rate                                 : 188 kb/s

Channel(s)                               : 2 channels

Channel layout                           : L R

Sampling rate                            : 48.0 kHz

Frame rate                               : 46.875 FPS (1024 SPF)

Compression mode                         : Lossy

Stream size                              : 235 MiB (14%)

Language                                 : Hindi

Default                                  : No

Forced                                   : No


File List:

Rangasthalam (2018) [Hindi Dub] 400p WEB-DLRip Saicord mkv
....
1.69 GB