Hide Your IP Address when Downloading Torrents!
Your IP Address is 182.232.198.186. Location Thailand,
Your Internet Provider can see when you download torrents! Hide your IP Address with a VPN
ETTV warns: You should use VPN to hide your torrenting. Hide IP with VPN

Download "Rangasthalam (2018) [Hindi Dub] 1080p WEB-DLRip Saicord"

Title:
Rangasthalam (2018) [Hindi Dub] 1080p WEB-DLRip Saicord
Category:
Movies > Bollywood
Language:
Hindi
Total Size:
5.11 GB
Info Hash:
ab7b462102feeeff84435ff4d6c9acc7fb0c047b
Added By:
MelbetCinema7
Date Added:
1 week ago
  • Seeds: 31
  • Leechers: 24
  • Uploaded By: MelbetCinema7
Uploaders Description









Video

ID                                       : 1

Format                                   : AVC

Format/Info                              : Advanced Video Codec

Format profile                           : [email protected]

Format settings                          : 1 Ref Frames

Format settings, CABAC                   : No

Format settings, Reference frames        : 1 frame

Format settings, GOP                     : M=1, N=24

Codec ID                                 : avc1

Codec ID/Info                            : Advanced Video Coding

Duration                                 : 2 h 55 min

Bit rate                                 : 3 983 kb/s

Width                                    : 1 920 pixels

Height                                   : 1 080 pixels

Display aspect ratio                     : 16:9

Frame rate mode                          : Constant

Frame rate                               : 24.000 FPS

Color space                              : YUV

Chroma subsampling                       : 4:2:0

Bit depth                                : 8 bits

Scan type                                : Progressive

Bits/(Pixel*Frame)                       : 0.080

Stream size                              : 4.88 GiB (95%)

Encoded date                             : UTC 2021-12-21 18:50:17

Tagged date                              : UTC 2021-12-21 18:50:17

Codec configuration box                  : avcC


Audio

ID                                       : 2

Format                                   : AAC LC

Format/Info                              : Advanced Audio Codec Low Complexity

Codec ID                                 : mp4a-40-2

Duration                                 : 2 h 55 min

Bit rate mode                            : Variable

Bit rate                                 : 188 kb/s

Maximum bit rate                         : 195 kb/s

Channel(s)                               : 2 channels

Channel layout                           : L R

Sampling rate                            : 48.0 kHz

Frame rate                               : 46.875 FPS (1024 SPF)

Compression mode                         : Lossy

Stream size                              : 235 MiB (4%)

Encoded date                             : UTC 2021-12-21 18:50:17

Tagged date                              : UTC 2021-12-21 18:50:17


File List:

Rangasthalam (2018) [Hindi Dub] 1080p WEB-DLRip Saicord mp4
....
5.11 GB