Hide Your IP Address when Downloading Torrents!
Your IP Address is 182.232.198.186. Location Thailand,
Your Internet Provider can see when you download torrents! Hide your IP Address with a VPN
ETTV warns: You should use VPN to hide your torrenting. Hide IP with VPN

Download "Riverdance The Animated Adventure 2022 x264 720p NeTfLiX WebHD Esub ACC English Hindi THE GOPI SAHI"

Title:
Riverdance The Animated Adventure 2022 x264 720p NeTfLiX WebHD Esub ACC English Hindi THE GOPI SAHI
Category:
Movies > Dubs/Dual Audio
Language:
Hindi
Total Size:
719 MB
Info Hash:
d1963fb186c644b6ba18682d6ef84f33a19e92db
Added By:
GOPISAHI
Date Added:
6 days ago
  • Seeds: 163
  • Leechers: 36
  • Uploaded By: GOPISAHI
Uploaders Description
Join Us On TeleGram

https://t.me/gopisahit



Riverdance The Animated Adventure 2022 x264 720p NeTfLiX WebHD Esub ACC English Hindi THE GOPI SAHI

Format                         : Matroska
Format version                 : Version 4
File size                      : 719 MiB
Duration                       : 1 h 33 min
Overall bit rate               : 1 073 kb/s
Movie name                     : Riverdance The Animated Adventure 2022 GOPI SAHI
Encoded date                   : UTC 2022-01-14 12:39:18

Video
ID                             : 1
Format                         : AVC
Format/Info                    : Advanced Video Codec
Format profile                 : [email protected]
Format settings                : CABAC / 6 Ref Frames
Format settings, CABAC         : Yes
Format settings, Reference fra : 6 frames
Codec ID                       : V_MPEG4/ISO/AVC
Duration                       : 1 h 33 min
Bit rate                       : 899 kb/s
Width                          : 1 280 pixels
Height                         : 534 pixels
Display aspect ratio           : 2.35:1
Frame rate mode                : Constant
Frame rate                     : 24.000 FPS
Color space                    : YUV
Chroma subsampling             : 4:2:0
Bit depth                      : 8 bits
Scan type                      : Progressive
Bits/(Pixel*Frame)             : 0.055
Stream size                    : 602 MiB (84%)
Title                          : GOPI SAHI
Writing library                : x264 core 163 r3059 b684ebe0

Audio #1
ID                             : 2
Format                         : AAC LC
Format/Info                    : Advanced Audio Codec Low Complexity
Codec ID                       : A_AAC-2
Duration                       : 1 h 33 min
Bit rate                       : 93.5 kb/s
Channel(s)                     : 2 channels
Channel layout                 : L R
Sampling rate                  : 48.0 kHz
Frame rate                     : 46.875 FPS (1024 SPF)
Compression mode               : Lossy
Delay relative to video        : -21 ms
Stream size                    : 62.6 MiB (9%)
Title                          : GOPI SAHI
Language                       : Hindi
Default                        : Yes
Forced                         : No

Audio #2
ID                             : 3
Format                         : AAC LC
Format/Info                    : Advanced Audio Codec Low Complexity
Codec ID                       : A_AAC-2
Duration                       : 1 h 33 min
Bit rate                       : 77.8 kb/s
Channel(s)                     : 2 channels
Channel layout                 : L R
Sampling rate                  : 48.0 kHz
Frame rate                     : 46.875 FPS (1024 SPF)
Compression mode               : Lossy
Delay relative to video        : -21 ms
Stream size                    : 52.1 MiB (7%)
Title                          : GOPI SAHI
Language                       : English
Default                        : No
Forced                         : No

Text
ID                             : 4
Language                       : English



File List:

Riverdance The Animated Adventure 2022 x264 720p NeTfLiX WebHD Esub ACC English Hindi THE GOPI SAHI mkv
....
719 MB