Hide Your IP Address when Downloading Torrents!
Your IP Address is 182.232.198.186. Location Thailand,
Your Internet Provider can see when you download torrents! Hide your IP Address with a VPN
ETTV warns: You should use VPN to hide your torrenting. Hide IP with VPN

Download "The House 2022 x264 720p NeTfLiX WebHD Esub ACC English Hindi THE GOPI SAHI"

Title:
The House 2022 x264 720p NeTfLiX WebHD Esub ACC English Hindi THE GOPI SAHI
Category:
Movies > Dubs/Dual Audio
Language:
Hindi
Total Size:
749 MB
Info Hash:
5935bb339d21e7588d3ed34a0c4208ffdcf94eab
Added By:
GOPISAHI
Date Added:
6 days ago
  • Seeds: 149
  • Leechers: 41
  • Uploaded By: GOPISAHI
Uploaders Description
Join Us On TeleGram

https://t.me/gopisahit



The House 2022 x264 720p NeTfLiX WebHD Esub ACC English Hindi THE GOPI SAHI

Format                         : Matroska
Format version                 : Version 4
File size                      : 749 MiB
Duration                       : 1 h 37 min
Overall bit rate               : 1 076 kb/s
Movie name                     : The House 2022 GOPI SAHI
Encoded date                   : UTC 2022-01-14 12:38:14

Video
ID                             : 1
Format                         : AVC
Format/Info                    : Advanced Video Codec
Format profile                 : [email protected]
Format settings                : CABAC / 6 Ref Frames
Format settings, CABAC         : Yes
Format settings, Reference fra : 6 frames
Codec ID                       : V_MPEG4/ISO/AVC
Duration                       : 1 h 37 min
Bit rate                       : 899 kb/s
Width                          : 1 280 pixels
Height                         : 534 pixels
Display aspect ratio           : 16:9
Frame rate mode                : Constant
Frame rate                     : 24.000 FPS
Color space                    : YUV
Chroma subsampling             : 4:2:0
Bit depth                      : 8 bits
Scan type                      : Progressive
Bits/(Pixel*Frame)             : 0.055
Stream size                    : 625 MiB (84%)
Title                          : GOPI SAHI
Writing library                : x264 core 163 r3059 b684ebe0

Audio #1
ID                             : 2
Format                         : AAC LC
Format/Info                    : Advanced Audio Codec Low Complexity
Codec ID                       : A_AAC-2
Duration                       : 1 h 37 min
Bit rate                       : 96.0 kb/s
Channel(s)                     : 2 channels
Channel layout                 : L R
Sampling rate                  : 48.0 kHz
Frame rate                     : 46.875 FPS (1024 SPF)
Compression mode               : Lossy
Delay relative to video        : -21 ms
Stream size                    : 66.0 MiB (9%)
Title                          : GOPI SAHI
Language                       : Hindi
Default                        : Yes
Forced                         : No

Audio #2
ID                             : 3
Format                         : AAC LC
Format/Info                    : Advanced Audio Codec Low Complexity
Codec ID                       : A_AAC-2
Duration                       : 1 h 37 min
Bit rate                       : 79.0 kb/s
Channel(s)                     : 2 channels
Channel layout                 : L R
Sampling rate                  : 48.0 kHz
Frame rate                     : 46.875 FPS (1024 SPF)
Compression mode               : Lossy
Delay relative to video        : -21 ms
Stream size                    : 55.0 MiB (7%)
Language                       : English
Default                        : No
Forced                         : No

Text
Language                       : English



File List:

The House 2022 x264 720p NeTfLiX WebHD Esub ACC English Hindi THE GOPI SAHI mkv
....
749 MB