Hide Your IP Address when Downloading Torrents!
Your IP Address is 182.232.198.186. Location Thailand,
Your Internet Provider can see when you download torrents! Hide your IP Address with a VPN
ETTV warns: You should use VPN to hide your torrenting. Hide IP with VPN

Download "Archive 81 S01 2022 x264 720p NeTfLiX WebHD Esub ACC English Hindi THE GOPI SAHI"

Title:
Archive 81 S01 2022 x264 720p NeTfLiX WebHD Esub ACC English Hindi THE GOPI SAHI
Category:
Movies > Dubs/Dual Audio
Language:
Hindi
Total Size:
1.51 GB
Info Hash:
c86b60a16a9e1fbd1ef5f27207953615b8ecb7f9
Added By:
GOPISAHI
Date Added:
1 week ago
  • Seeds: 47
  • Leechers: 7
  • Uploaded By: GOPISAHI
Uploaders Description
Join Us On TeleGram

https://t.me/gopisahit



Archive 81 S01 2022 x264 720p NeTfLiX WebHD Esub ACC English Hindi THE GOPI SAHI

Format                         : Matroska
Format version                 : Version 4
File size                      : 1.51 GiB
Duration                       : 6 h 47 min
Overall bit rate               : 530 kb/s
Movie name                     : Archive 81 S01 2022 GOPI SAHI
Encoded date                   : UTC 2022-01-15 05:52:02

Video
ID                             : 1
Format                         : AVC
Format/Info                    : Advanced Video Codec
Format profile                 : [email protected]
Format settings                : CABAC / 6 Ref Frames
Format settings, CABAC         : Yes
Format settings, Reference fra : 6 frames
Codec ID                       : V_MPEG4/ISO/AVC
Duration                       : 6 h 47 min
Bit rate                       : 399 kb/s
Width                          : 1 280 pixels
Height                         : 534 pixels
Display aspect ratio           : 2.000
Frame rate mode                : Constant
Frame rate                     : 23.976 FPS
Color space                    : YUV
Chroma subsampling             : 4:2:0
Bit depth                      : 8 bits
Scan type                      : Progressive
Bits/(Pixel*Frame)             : 0.024
Stream size                    : 1.14 GiB (75%)
Title                          : GOPI SAHI
Writing library                : x264 core 163 r3059 b684ebe0

Audio #1
ID                             : 2
Format                         : AAC LC
Format/Info                    : Advanced Audio Codec Low Complexity
Codec ID                       : A_AAC-2
Duration                       : 6 h 47 min
Bit rate                       : 64.2 kb/s
Channel(s)                     : 2 channels
Channel layout                 : L R
Sampling rate                  : 48.0 kHz
Frame rate                     : 46.875 FPS (1024 SPF)
Compression mode               : Lossy
Delay relative to video        : -21 ms
Stream size                    : 187 MiB (12%)
Title                          : GOPI SAHI
Language                       : Hindi
Default                        : Yes
Forced                         : No

Audio #2
ID                             : 3
Format                         : AAC LC
Format/Info                    : Advanced Audio Codec Low Complexity
Codec ID                       : A_AAC-2
Duration                       : 6 h 47 min
Bit rate                       : 64.1 kb/s
Channel(s)                     : 2 channels
Channel layout                 : L R
Sampling rate                  : 48.0 kHz
Frame rate                     : 46.875 FPS (1024 SPF)
Compression mode               : Lossy
Delay relative to video        : -21 ms
Stream size                    : 187 MiB (12%)
Title                          : GOPI SAHI
Language                       : English
Default                        : No
Forced                         : No

Text
Language                       : English



File List:

Archive 81 S01 2022 x264 720p NeTfLiX WebHD Esub ACC English Hindi THE GOPI SAHI mkv
....
1.51 GB