Hide Your IP Address when Downloading Torrents!
Your IP Address is 182.232.198.186. Location Thailand,
Your Internet Provider can see when you download torrents! Hide your IP Address with a VPN
ETTV warns: You should use VPN to hide your torrenting. Hide IP with VPN

Download "Kade Haan Kade Naa 2021 x264 720p Chaupal WebHD Esub AAC Punjabi THE GOPI SAHI"

Title:
Kade Haan Kade Naa 2021 x264 720p Chaupal WebHD Esub AAC Punjabi THE GOPI SAHI
Category:
Movies > Bollywood
Language:
Punjabi
Total Size:
944 MB
Info Hash:
65cfe59966b1703992fece19aa29975bcb62ecc3
Added By:
GOPISAHI
Date Added:
1 week ago
  • Seeds: 124
  • Leechers: 23
  • Uploaded By: GOPISAHI
Uploaders Description
Join Us On TeleGram

https://t.me/gopisahit



Kade Haan Kade Naa 2021 x264 720p Chaupal WebHD Esub AAC Punjabi THE GOPI SAHI

Format                         : Matroska
Format version                 : Version 4
File size                      : 944 MiB
Duration                       : 2 h 12 min
Overall bit rate               : 998 kb/s
Movie name                     : Kade Haan Kade Naa 2021 GOPI SAHI
Encoded date                   : UTC 2022-01-15 05:57:15

Video
ID                             : 1
Format                         : AVC
Format/Info                    : Advanced Video Codec
Format profile                 : [email protected]
Format settings                : CABAC / 6 Ref Frames
Format settings, CABAC         : Yes
Format settings, Reference fra : 6 frames
Codec ID                       : V_MPEG4/ISO/AVC
Duration                       : 2 h 12 min
Bit rate                       : 899 kb/s
Width                          : 1 280 pixels
Height                         : 534 pixels
Display aspect ratio           : 2.40:1
Frame rate mode                : Constant
Frame rate                     : 29.970 (30000/1001) FPS
Color space                    : YUV
Chroma subsampling             : 4:2:0
Bit depth                      : 8 bits
Scan type                      : Progressive
Bits/(Pixel*Frame)             : 0.044
Stream size                    : 851 MiB (90%)
Title                          : GOPI SAHI
Writing library                : x264 core 163 r3059 b684ebe0

Audio
ID                             : 2
Format                         : AAC LC
Format/Info                    : Advanced Audio Codec Low Complexity
Codec ID                       : A_AAC-2
Duration                       : 2 h 12 min
Bit rate                       : 96.0 kb/s
Channel(s)                     : 2 channels
Channel layout                 : L R
Sampling rate                  : 48.0 kHz
Frame rate                     : 46.875 FPS (1024 SPF)
Compression mode               : Lossy
Delay relative to video        : -21 ms
Stream size                    : 91.0 MiB (10%)
Title                          : GOPI SAHI
Language                       : Panjabi
Default                        : Yes
Forced                         : No

Text
Language                       : English



File List:

Kade Haan Kade Naa 2021 x264 720p Chaupal WebHD Esub AAC Punjabi THE GOPI SAHI mkv
....
944 MB