Hide Your IP Address when Downloading Torrents!
Your IP Address is 182.232.198.186. Location Thailand,
Your Internet Provider can see when you download torrents! Hide your IP Address with a VPN
ETTV warns: You should use VPN to hide your torrenting. Hide IP with VPN

Download "Bonobo (2014) [Hindi Dub] WEB-DLRip Saicord"

Title:
Bonobo (2014) [Hindi Dub] WEB-DLRip Saicord
Category:
Movies > SD X264/H264
Language:
Hindi
Total Size:
828 MB
Info Hash:
f607d7f475efccb3578236a377fb9e049954af7c
Added By:
MelbetCinema7
Date Added:
5 days ago
  • Seeds: 14
  • Leechers: 0
  • Uploaded By: MelbetCinema7
Uploaders Description









Video

ID                          : 1

Format                      : AVC

Format/Info                 : Advanced Video Codec

Format profile              : [email protected]

Format settings             : 3 Ref Frames

Format settings, CABAC      : No

Format settings, Reference  : 3 frames

Codec ID                    : V_MPEG4/ISO/AVC

Duration                    : 1 h 24 min

Bit rate                    : 1 177 kb/s

Width                       : 720 pixels

Height                      : 408 pixels

Display aspect ratio        : 16:9

Frame rate mode             : Constant

Frame rate                  : 23.976 (24000/1001) FPS

Color space                 : YUV

Chroma subsampling          : 4:2:0

Bit depth                   : 8 bits

Scan type                   : Progressive

Bits/(Pixel*Frame)          : 0.167

Stream size                 : 713 MiB (86%)

Default                     : Yes

Forced                      : No


Audio

ID                          : 2

Format                      : AAC LC

Format/Info                 : Advanced Audio Codec Low Complexity

Codec ID                    : A_AAC-2

Duration                    : 1 h 24 min

Bit rate                    : 188 kb/s

Channel(s)                  : 2 channels

Channel layout              : L R

Sampling rate               : 48.0 kHz

Frame rate                  : 46.875 FPS (1024 SPF)

Compression mode            : Lossy

Stream size                 : 114 MiB (14%)

Language                    : Hindi

Default                     : No

Forced                      : No


File List:

Bonobo (2014) [Hindi Dub] 400p WEB-DLRip Saicord mkv
....
828 MB