Hide Your IP Address when Downloading Torrents!
Your IP Address is 182.232.198.186. Location Thailand,
Your Internet Provider can see when you download torrents! Hide your IP Address with a VPN
ETTV warns: You should use VPN to hide your torrenting. Hide IP with VPN

Download "Brothers by Blood (2020) [Hindi Dub] 720p WEB-DLRip Saicord"

Title:
Brothers by Blood (2020) [Hindi Dub] 720p WEB-DLRip Saicord
Category:
Movies > HD 720p
Language:
Hindi
Total Size:
1.37 GB
Info Hash:
fdee10cc29a9846a10caceb5779e2fd3a6f25af0
Added By:
MelbetCinema7
Date Added:
1 week ago
  • Seeds: 11
  • Leechers: 0
  • Uploaded By: MelbetCinema7
Uploaders Description









Video

ID                          : 1

Format                      : AVC

Format/Info                 : Advanced Video Codec

Format profile              : [email protected]

Format settings             : 3 Ref Frames

Format settings, CABAC      : No

Format settings, Reference  : 3 frames

Codec ID                    : V_MPEG4/ISO/AVC

Duration                    : 1 h 31 min

Bit rate                    : 1 940 kb/s

Width                       : 1 280 pixels

Height                      : 720 pixels

Display aspect ratio        : 16:9

Frame rate mode             : Constant

Frame rate                  : 23.976 (24000/1001) FPS

Color space                 : YUV

Chroma subsampling          : 4:2:0

Bit depth                   : 8 bits

Scan type                   : Progressive

Bits/(Pixel*Frame)          : 0.088

Stream size                 : 1.25 GiB (91%)

Default                     : Yes

Forced                      : No


Audio

ID                          : 2

Format                      : AAC LC

Format/Info                 : Advanced Audio Codec Low Complexity

Codec ID                    : A_AAC-2

Duration                    : 1 h 31 min

Bit rate                    : 188 kb/s

Channel(s)                  : 2 channels

Channel layout              : L R

Sampling rate               : 48.0 kHz

Frame rate                  : 46.875 FPS (1024 SPF)

Compression mode            : Lossy

Stream size                 : 124 MiB (9%)

Language                    : Hindi

Default                     : No

Forced                      : No


File List:

Brothers by Blood (2020) [Hindi Dub] 720p WEB-DLRip Saicord mkv
....
1.37 GB