Hide Your IP Address when Downloading Torrents!
Your IP Address is 182.232.198.186. Location Thailand,
Your Internet Provider can see when you download torrents! Hide your IP Address with a VPN
ETTV warns: You should use VPN to hide your torrenting. Hide IP with VPN

Download "Yeh Kaali Kaali Ankhein S01 2022 x264 720p NeTfLiX WebHD Esub ACC Hindi Telugu Tamil THE GOPI SAHI"

Title:
Yeh Kaali Kaali Ankhein S01 2022 x264 720p NeTfLiX WebHD Esub ACC Hindi Telugu Tamil THE GOPI SAHI
Category:
Movies > Bollywood
Language:
Hindi
Total Size:
1.84 GB
Info Hash:
a162041a2742e1efad2cbcdf41e6165f39521482
Added By:
GOPISAHI
Date Added:
1 week ago
  • Seeds: 170
  • Leechers: 37
  • Uploaded By: GOPISAHI
Uploaders Description
Join Us On TeleGram

https://t.me/gopisahit



Yeh Kaali Kaali Ankhein S01 2022 x264 720p NeTfLiX WebHD Esub ACC Hindi Telugu Tamil THE GOPI SAHI

Format                         : Matroska
Format version                 : Version 4
File size                      : 1.84 GiB
Duration                       : 4 h 54 min
Overall bit rate               : 896 kb/s
Movie name                     : Yeh Kaali Kaali Ankhein S01 2022 GOPI SAHI
Encoded date                   : UTC 2022-01-15 07:24:00

Video
ID                             : 1
Format                         : AVC
Format/Info                    : Advanced Video Codec
Format profile                 : [email protected]
Format settings                : CABAC / 6 Ref Frames
Format settings, CABAC         : Yes
Format settings, Reference fra : 6 frames
Codec ID                       : V_MPEG4/ISO/AVC
Duration                       : 4 h 54 min
Bit rate                       : 699 kb/s
Width                          : 1 280 pixels
Height                         : 534 pixels
Display aspect ratio           : 2.000
Frame rate mode                : Constant
Frame rate                     : 24.000 FPS
Color space                    : YUV
Chroma subsampling             : 4:2:0
Bit depth                      : 8 bits
Scan type                      : Progressive
Bits/(Pixel*Frame)             : 0.043
Stream size                    : 1.44 GiB (78%)
Title                          : GOPI SAHI
Writing library                : x264 core 163 r3059 b684ebe0

Audio #1
ID                             : 2
Format                         : AAC LC
Format/Info                    : Advanced Audio Codec Low Complexity
Codec ID                       : A_AAC-2
Duration                       : 4 h 54 min
Bit rate                       : 64.3 kb/s
Channel(s)                     : 2 channels
Channel layout                 : L R
Sampling rate                  : 48.0 kHz
Frame rate                     : 46.875 FPS (1024 SPF)
Compression mode               : Lossy
Delay relative to video        : -21 ms
Stream size                    : 135 MiB (7%)
Title                          : GOPI SAHI
Language                       : Hindi
Default                        : Yes
Forced                         : No

Audio #2
ID                             : 3
Format                         : AAC LC
Format/Info                    : Advanced Audio Codec Low Complexity
Codec ID                       : A_AAC-2
Duration                       : 4 h 54 min
Bit rate                       : 64.4 kb/s
Channel(s)                     : 2 channels
Channel layout                 : L R
Sampling rate                  : 48.0 kHz
Frame rate                     : 46.875 FPS (1024 SPF)
Compression mode               : Lossy
Delay relative to video        : -21 ms
Stream size                    : 135 MiB (7%)
Title                          : GOPI SAHI
Language                       : Telugu
Default                        : No
Forced                         : No

Audio #3
ID                             : 4
Format                         : AAC LC
Format/Info                    : Advanced Audio Codec Low Complexity
Codec ID                       : A_AAC-2
Duration                       : 4 h 54 min
Bit rate                       : 64.4 kb/s
Channel(s)                     : 2 channels
Channel layout                 : L R
Sampling rate                  : 48.0 kHz
Frame rate                     : 46.875 FPS (1024 SPF)
Compression mode               : Lossy
Delay relative to video        : -21 ms
Stream size                    : 135 MiB (7%)
Title                          : GOPI SAHI
Language                       : Tamil
Default                        : No
Forced                         : No

Text
Language                       : English



File List:

Yeh Kaali Kaali Ankhein S01 2022 x264 720p NeTfLiX WebHD Esub ACC Hindi Telugu Tamil THE GOPI SAHI mkv
....
1.84 GB