Hide Your IP Address when Downloading Torrents!
Your IP Address is 182.232.198.186. Location Thailand,
Your Internet Provider can see when you download torrents! Hide your IP Address with a VPN
ETTV warns: You should use VPN to hide your torrenting. Hide IP with VPN

Download "Brothers by Blood (2020) [Hindi Dub] 1080p WEB-DLRip Saicord"

Title:
Brothers by Blood (2020) [Hindi Dub] 1080p WEB-DLRip Saicord
Category:
Movies > HD 1080p
Language:
Hindi
Total Size:
2.54 GB
Info Hash:
ecf42bea291aa811144da4dd169b705bc77dfc26
Added By:
MelbetCinema7
Date Added:
1 week ago
  • Seeds: 1
  • Leechers: 1
  • Uploaded By: MelbetCinema7
Uploaders Description









Video

ID                          : 1

Format                      : AVC

Format/Info                 : Advanced Video Codec

Format profile              : [email protected]

Format settings             : 1 Ref Frames

Format settings, CABAC      : No

Format settings, Reference  : 1 frame

Format settings, GOP        : M=1, N=24

Codec ID                    : avc1

Codec ID/Info               : Advanced Video Coding

Duration                    : 1 h 31 min

Bit rate                    : 3 770 kb/s

Width                       : 1 920 pixels

Height                      : 1 080 pixels

Display aspect ratio        : 16:9

Frame rate mode             : Constant

Frame rate                  : 23.976 (24000/1001) FPS

Color space                 : YUV

Chroma subsampling          : 4:2:0

Bit depth                   : 8 bits

Scan type                   : Progressive

Bits/(Pixel*Frame)          : 0.076

Stream size                 : 2.42 GiB (95%)

Encoded date                : UTC 2021-12-13 12:38:10

Tagged date                 : UTC 2021-12-13 12:38:10

Codec configuration box     : avcC


Audio

ID                          : 2

Format                      : AAC LC

Format/Info                 : Advanced Audio Codec Low Complexity

Codec ID                    : mp4a-40-2

Duration                    : 1 h 31 min

Bit rate mode               : Variable

Bit rate                    : 188 kb/s

Maximum bit rate            : 195 kb/s

Channel(s)                  : 2 channels

Channel layout              : L R

Sampling rate               : 48.0 kHz

Frame rate                  : 46.875 FPS (1024 SPF)

Compression mode            : Lossy

Stream size                 : 124 MiB (5%)

Encoded date                : UTC 2021-12-13 12:38:10

Tagged date                 : UTC 2021-12-13 12:38:10


File List:

Brothers by Blood (2020) [Hindi Dub] 1080p WEB-DLRip Saicord mp4
....
2.54 GB