the 100 ettv arrow español Scoob! 2020 hanna Birds of Prey (and the Fantabulous Emancipation of One Harley Quinn) 2020 evo Condor S02E06 the protector Hanna s02e07 Eurovision Song Contest The Story of Fire Saga 2020 hindi Hanna s02e02 marvel week snowpiercer Greyhound 2020 Yellowstone S03E04 dark The Outpost 2020 The Real Housewives of Beverly Hills S10E09 Hamilton 2020 aew rq.mp4 Blindspot Ettv You Should Have Left 2020 ddr Artemis Fowl 2020 Dirty John S02E07 Desperados 2020 Perry Mason s01e03 stargirl warrior nun Hanna s02e08 Stargirl S01E08 Yellowstone S03E03 Hanna s02e03 dc week etmovies yts warrior nun s01e01 condor big bang theory español The 100 S07E07 Marvels Agents of S.H.I.E.L.D. S07E07 agents The 100 S07E08 Trolls World Tour 2020 agents of  Irresistible 2020 Snowpiercer s01e08 doom patrol Big Dogs S01E01 Hanna s02e05 wwe Force of Nature 2020 Hanna s02e04 billions ethd etrg ita The Blacklist S07E15 bone yellowstone The Challenge s35e15 Hanna s02e06 Seal Team Deadliest Catch S16E13 xxx The King of Staten Island 2020 Hanna s02e01 
Warning! Use a VPN When Downloading Torrents!
Your IP Address is 3.234.241.200. Location United States
Your Internet Provider can see when you download torrents! Hide your IP Address with a VPN
ETTV warns: You should use VPN to hide your torrenting. HIDE ME NOW
ETTV Recommended TV Shows
Doom.Patrol.S02E05.1080p.HEVC.x265.Eng.DD.5.1.MeGusta.ETRG torrent
Blindspot.S05E09.720p.HDTV.x264-AVS[ettv] torrent
Blindspot.S05E10.720p.HDTV.x264-AVS[ettv] torrent
WWE Main Event 2020 07 08 720p WEB h264-TBS [TJET] torrent
The.Bold.Type.S04E15.WEB.h264-TBS[ettv] torrent
Greatness.Code.S01E01.1080p.WEB.h264-TRUMP[ettv] torrent

ETTV Recommended SD
Greyhound.2020.HDRip.XviD.AC3-EVO[EtMovies] torrent
Archive.2020.HDRip.XviD.AC3-EVO[EtMovies] torrent
Palm.Springs.2020.HDRip.XviD.AC3-EVO[EtMovies] torrent
The.Old.Guard.2020.HDRip.XviD.AC3-EVO[EtMovies] torrent

ETTV Recommended HD
Palm.Springs.2020.1080p.HULU.WEB-DL.H264.AC3-EVO[EtHD] torrent
Archive.2020.1080p.WEB-DL.H264.AC3-EVO[EtHD] torrent
The.Old.Guard.2020.NF.WEB-DL.DD5.1.x264-CMRG[EtHD] torrent
Greyhound.2020.1080p.ATVP.WEB-DL.H264-EVO[EtHD] torrent

ETTV Recommended UHD
INXS - Live Baby Live 1991 (2020).UHD.Bluray.2160p.HDR.Atmos.7.1.HEVC-DDR.mkv torrent
Tropic.Thunder.2008.MULTi.TC.2160p.HDR.WEBRip.DTS-HDMA.5.1.HEVC-DDR.mkv torrent
Playing.with.Fire.2019.4K.MULTI.2160p.HDR.WEBRip.DTS-HDMA.5.1.HEVC-DDR.mkv torrent
The.Last.Days.of.American.Crime.2020.4K.MULTI.2160p.HDR.WEBRip.DDP.5.1.HEVC-DDR.mkv torrent
Onward - Oltre la magia (2020) [BluRay Rip 2160p HEVC 10bit-HDR ITA-ENG DD+AC3-SUBS] [M@HD] torrent
Greyhound.2020.2160p.WEB-Rip.DDP5.1.Atmos.HDR.HEVC-DDR.mkv torrent

ETTV Recommended Cam
The Hunt 2020 HDCAM x264 AC3-ETRG torrent
The Burnt Orange Heresy 2020 720p HDCAM-C1NEM4 torrent

ETTV Recommended Foreign
Shadow.Animals.[Skuggdjur].2017.1080p.WEBRip.x264.AAC.HORiZON-ArtSubs torrent
Gauguin.a.Tahiti.Il.Paradiso Perduto.2019 HDTV 1080p Ita x265-NAHOM torrent
Centurion (2010) AC3 5.1 ITA.ENG 1080p H265 sub ita.eng Sp33dy94 MIRCrew torrent
The.Old.Guard.2020.1080p.NF.WEB-DL.HIN-ENG.DDP5.1.Atmos.x264-Telly torrent
Coktail (2020) [TAMIL - 720p - WEB HDRip - x264 - DD 5.1 - ESub - 2GB] - MAZE torrent
47 Meters Down-Uncaged (2019) Dual Audio Hindi-English 720p BluRay ESubs [FPRG] torrent

ETTV Recommended Misc
[alt-country, indie-rock] (2020) My Morning Jacket - The Waterfall II [FLAC] [DarkAngie] torrent
Summer Walker - Life On Earth - EP (2020) Mp3 (320kbps) [Hunter] torrent
Headdock - Hidden Sounds & Vibrations 10-07-2020 {1337x} torrent
Kid Cudi feat. Eminem - The Adventures of Moon Man & Slim Shady (2020) [Single] Mp3 320kbps [PMEDIA] ⭐️.mp3 torrent
Juice WRLD Legends Never Die Rap Album Mp3~(2020) [320]  kbps Beats⭐ torrent
The Rolling Stones - Steel Wheels (Remastered) (2020) [320 KBPS]  torrent


Download Torrent "The Man in the High Castle (2015) Season 3 S03 (1080p AMZN WEB-DL x265 HEVC..."

IMDB Details
Description:

N/A

Genre:

N/A

Download Torrent (Magnet)
Download Torrent (File)

Seeds: 274
Leechers: 554

Uploaded by:
QxR


Category:
TV > HEVC/x265 (Super High Quality, Small size, high CPU usage)


Details
Title:The Man in the High Castle (2015) Season 3 S03 (1080p AMZN WEB-DL x265 HEVC...
Description:


Encode Screenshots (Click for full quality)




Media Information
General
Format : Matroska
Format version : Version 4 / Version 2
File size : 1.48 GiB
Duration : 1 h 10 min
Overall bit rate : 3 029 kb/s
Encoded date : UTC 2018-10-08 00:45:28
Writing application : mkvmerge v15.0.0 ('Duel with the Devil') 64-bit
Writing library : libebml v1.3.5 + libmatroska v1.4.5
Writing frontend : StaxRip v1.7.0.0

Video
ID : 1
Format : HEVC
Format/Info : High Efficiency Video Coding
Format profile : Main [email protected]@Main
Codec ID : V_MPEGH/ISO/HEVC
Duration : 1 h 10 min
Bit rate : 2 643 kb/s
Width : 1 920 pixels
Height : 1 080 pixels
Display aspect ratio : 16:9
Frame rate mode : Constant
Frame rate : 23.976 (24000/1001) FPS
Color space : YUV
Chroma subsampling : 4:2:0
Bit depth : 10 bits
Bits/(Pixel*Frame) : 0.053
Stream size : 1.29 GiB (87%)
Title : Encoded by MONOLITH
Writing library : x265 2.5+14-2718cb5dd67f:[Windows][GCC 7.1.0][64 bit] 10bit
Encoding settings : cpuid=1173503 / frame-threads=3 / numa-pools=12 / wpp / no-pmode / no-pme / no-psnr / no-ssim / log-level=2 / input-csp=1 / input-res=1920x1080 / interlace=0 / total-frames=100749 / level-idc=0 / high-tier=1 / uhd-bd=0 / ref=4 / no-allow-non-conformance / no-repeat-headers / annexb / no-aud / no-hrd / info / hash=0 / no-temporal-layers / open-gop / min-keyint=23 / keyint=250 / bframes=8 / b-adapt=2 / b-pyramid / bframe-bias=0 / rc-lookahead=80 / lookahead-slices=4 / scenecut=40 / no-intra-refresh / ctu=64 / min-cu-size=8 / rect / no-amp / max-tu-size=32 / tu-inter-depth=1 / tu-intra-depth=1 / limit-tu=0 / rdoq-level=2 / dynamic-rd=0.00 / no-ssim-rd / signhide / no-tskip / nr-intra=0 / nr-inter=0 / no-constrained-intra / no-strong-intra-smoothing / max-merge=3 / limit-refs=3 / limit-modes / me=3 / subme=3 / merange=57 / temporal-mvp / weightp / no-weightb / no-analyze-src-pics / deblock=-3:-3 / no-sao / no-sao-non-deblock / rd=4 / no-early-skip / rskip / no-fast-intra / no-tskip-fast / no-cu-lossless / no-b-intra / no-splitrd-skip / rdpenalty=0 / psy-rd=1.50 / psy-rdoq=1.60 / no-rd-refine / analysis-reuse-mode=0 / no-lossless / cbqpoffs=0 / crqpoffs=0 / rc=crf / crf=20.5 / qcomp=0.60 / qpstep=4 / stats-write=0 / stats-read=0 / ipratio=1.40 / pbratio=1.30 / aq-mode=3 / aq-strength=1.00 / cutree / zone-count=0 / no-strict-cbr / qg-size=32 / no-rc-grain / qpmax=69 / qpmin=0 / no-const-vbv / sar=0 / overscan=0 / videoformat=5 / range=0 / colorprim=2 / transfer=2 / colormatrix=2 / chromaloc=0 / display-window=0 / max-cll=0,0 / min-luma=0 / max-luma=1023 / log2-max-poc-lsb=8 / vui-timing-info / vui-hrd-info / slices=1 / opt-qp-pps / opt-ref-list-length-pps / no-multi-pass-opt-rps / scenecut-bias=0.05 / no-opt-cu-delta-qp / no-aq-motion / no-hdr / no-hdr-opt / no-dhdr10-opt / analysis-reuse-level=5 / scale-factor=0 / refine-intra=0 / refine-inter=0 / refine-mv=0 / no-limit-sao / ctu-info=0
Default : Yes
Forced : No

Audio
ID : 2
Format : AAC
Format/Info : Advanced Audio Codec
Format profile : LC
Codec ID : A_AAC
Duration : 1 h 10 min
Bit rate : 384 kb/s
Channel(s) : 6 channels
Channel positions : Front: L C R, Side: L R, LFE
Sampling rate : 48.0 kHz
Frame rate : 46.875 FPS (1024 spf)
Compression mode : Lossy
Delay relative to video : 20 ms
Stream size : 192 MiB (13%)
Language : English
Default : No
Forced : No

Subtitle #1
ID : 3
Format : UTF-8
Codec ID : S_TEXT/UTF8
Codec ID/Info : UTF-8 Plain Text
Duration : 31 min 7 s
Bit rate : 2 b/s
Count of elements : 23
Stream size : 548 Bytes (0%)
Language : English
Default : No
Forced : Yes

Subtitle #2
ID : 4
Format : UTF-8
Codec ID : S_TEXT/UTF8
Codec ID/Info : UTF-8 Plain Text
Duration : 1 h 7 min
Bit rate : 54 b/s
Count of elements : 1034
Stream size : 27.0 KiB (0%)
Language : English
Default : No
Forced : No

Menu
00:00:00.000 : en:Amazon Original
00:00:05.000 : en:Previously On
00:04:08.000 : en:The Resistance persists
00:05:48.000 : en:Opening Credits
00:07:17.000 : en:The Nazi's try to extract information
00:08:21.000 : en:The Japanese test their new weapon
00:10:46.000 : en:Juliana needs help finding an address
00:13:06.000 : en:Trudy is getting anxious
00:14:02.000 : en:Obergruppenfhrer returns home
00:15:07.000 : en:Juliana checks on Trudy
00:17:21.000 : en:Helen is still mourning over Thomas
00:19:14.000 : en:Joe does what he must to have a heart of steel
00:24:19.000 : en:Hawthorne has a revelation
00:27:54.000 : en:Juliana realizes they're no longer safe
00:31:51.000 : en:Inspector Kido hires a new Sergeant
00:35:12.000 : en:Joe returns home to the US
00:37:09.000 : en:Billy Turner gets a new staff member to head up propaganda
00:39:32.000 : en:Juliana gets to know Wyatt
00:47:05.000 : en:Juliana and Trudy flee
00:48:15.000 : en:Nicole and Joe reunite
00:52:20.000 : en:The Smith family copes with losing Thomas
00:55:20.000 : en:The Smith's celebrate the life and sacrifice of Thomas
00:59:29.000 : en:The Nazi Party honors Thomas' sacrifice
01:04:10.000 : en:Tagomi gets an unexpected visitor
01:05:47.000 : en:Raeder delivers Joe's new credentials
01:07:48.000 : en:End Credits

Source Information
Release : The.Man.in.the.High.Castle.S03.1080p.AMZN.WEB-DL.DDP5.1.H.264-NTG



Note from QxR:
Whilst we are happy for our releases to be re-posted on a platform we aren't on, please do so in an 'as-is' format. We ask that you do not create a new torrent, include all descriptions you see above including the QxR logo, tags, notes and screenshots. If you'd like to become a permanent poster on a website we don't post to, feel free to get in contact with a QxR member.
Category:TV > HEVC/x265
Lang:English  English
Total Size:10.83 GB
Info Hash:1d1f4332d603982c6de7a9bb207dc93b80fd9c86
Added By:QxR
Date Added:10-10-2018 13:36:31

Files

File List: 
 File Size
The Man in the High Castle (2015) - S03E01 - Now More Than Ever, We Care About You (1080p AMZN WEB-DL x265 MONOLITH).mkv1.48 GB
The Man in the High Castle (2015) - S03E02 - Imagine Manchuria (1080p AMZN WEB-DL x265 MONOLITH).mkv1.00 GB
1.01 GB
The Man in the High Castle (2015) - S03E04 - Sabra (1080p AMZN WEB-DL x265 MONOLITH).mkv1.08 GB
The Man in the High Castle (2015) - S03E05 - The New Colossus (1080p AMZN WEB-DL x265 MONOLITH).mkv923 MB
The Man in the High Castle (2015) - S03E06 - History Ends (1080p AMZN WEB-DL x265 MONOLITH).mkv1.09 GB
The Man in the High Castle (2015) - S03E07 - Excess Animus (1080p AMZN WEB-DL x265 MONOLITH).mkv1.01 GB
The Man in the High Castle (2015) - S03E08 - Kasumi (Through the Mists) (1080p AMZN WEB-DL x265 MONOLITH).mkv1.09 GB
The Man in the High Castle (2015) - S03E09 - Baku (1080p AMZN WEB-DL x265 MONOLITH).mkv1.06 GB
The Man in the High Castle (2015) - S03E10 - Jahr Null (1080p AMZN WEB-DL x265 MONOLITH).mkv1.11 GB



Comments

There are currently no comments. Be the first one to write something !